<?xml version="1.0" standalone="no"?>
<!DOCTYPE svg PUBLIC "-//W3C//DTD SVG 1.1//EN" "http://www.w3.org/Graphics/SVG/1.1/DTD/svg11.dtd" >
<svg xmlns="http://www.w3.org/2000/svg">
<metadata></metadata>
<defs>
<font id="db_ozone_xregular" horiz-adv-x="762" >
<font-face units-per-em="2048" ascent="1638" descent="-410" />
<missing-glyph horiz-adv-x="428" />
<glyph unicode="&#x2b;&#x2d;" horiz-adv-x="846" d="M94 0v106h660v-106h-660zM94 438v107h276v274h107v-274h277v-107h-277v-276h-107v276h-276z" />
<glyph unicode="&#x2e;&#x2e;&#x2e;" horiz-adv-x="1167" d="M133 74q0 16 6.5 30t17.5 25t25.5 18t30.5 7q17 0 32 -7t26 -18t17.5 -25t6.5 -30q0 -17 -6.5 -32t-17.5 -26t-26 -17.5t-32 -6.5q-16 0 -30.5 6.5t-25.5 17.5t-17.5 26t-6.5 32zM502 74q0 16 6.5 30t17.5 25t25.5 18t32.5 7q16 0 30 -7t25 -18t18 -25t7 -30 q0 -17 -7 -32t-18 -26t-25 -17.5t-30 -6.5q-17 0 -32 6.5t-26 17.5t-17.5 26t-6.5 32zM872 74q0 16 7 30t18 25t25 18t30 7q17 0 32 -7t26 -18t17.5 -25t6.5 -30q0 -17 -6.5 -32t-17.5 -26t-25.5 -17.5t-32.5 -6.5q-16 0 -30 6.5t-25 17.5t-18 26t-7 32z" />
<glyph horiz-adv-x="2048" />
<glyph horiz-adv-x="2048" />
<glyph unicode="&#xd;" horiz-adv-x="485" />
<glyph unicode=" "  horiz-adv-x="428" />
<glyph unicode="&#x09;" horiz-adv-x="428" />
<glyph unicode="&#xa0;" horiz-adv-x="428" />
<glyph unicode="!" horiz-adv-x="491" d="M190 68q0 16 6.5 30t17 24t24.5 16t30 6q15 0 29 -6t24.5 -16t16.5 -24t6 -30t-6 -30.5t-16.5 -25t-24 -16.5t-29.5 -6t-30 6t-24.5 16.5t-17 25t-6.5 30.5zM207 1042h127l-16 -726h-99z" />
<glyph unicode="&#x22;" horiz-adv-x="657" d="M133 786v266h125v-266h-125zM400 786v266h124v-266h-124z" />
<glyph unicode="#" horiz-adv-x="1009" d="M108 334v98h148l35 199h-137v104h151l51 313h119l-51 -313h230l48 313h117l-49 -313h131v-104h-145l-35 -199h133v-98h-146q-14 -84 -28 -167t-26 -167h-120l56 334h-234q-12 -84 -25 -167t-26 -167h-119l54 334h-132zM375 432h229l33 199h-227q-6 -51 -17 -100t-18 -99z " />
<glyph unicode="$" horiz-adv-x="864" d="M62 127l75 82q28 -28 56.5 -48.5t58 -34.5t61.5 -21t68 -9v379l-25 2q-60 5 -109 27t-84.5 58t-55 85t-19.5 109q0 63 19.5 114.5t56 90t90.5 61.5q54 22 121 28v132h94v-132q40 -2 75.5 -10t67.5 -22t62 -35t61 -49l-73 -76q-21 20 -42.5 35t-45 26.5t-50.5 18t-59 8.5 v-372l39 -4q58 -6 108.5 -26t88.5 -55t59.5 -86t21.5 -119q0 -63 -22.5 -114.5t-64 -89.5t-99 -61t-127.5 -29v-162h-94v158q-50 2 -92.5 11.5t-80.5 27t-72 42.5t-68 60zM203 760q0 -40 14.5 -70.5t39 -51.5t57 -33.5t67.5 -16.5v358q-44 -4 -77.5 -19t-55.5 -39 t-33.5 -56.5t-11.5 -71.5zM465 96q47 4 84 18.5t63 38t40 56.5t14 73q0 46 -16 80t-44 56t-64 34t-77 13v-369z" />
<glyph unicode="%" horiz-adv-x="1229" d="M86 692v156q0 45 15 82t42.5 63.5t65 40.5t82.5 14q44 0 81.5 -14t64.5 -40.5t43 -63.5t16 -82v-156q0 -44 -16 -80.5t-43 -62t-65 -39.5t-81 -14q-44 0 -82 14t-65.5 39.5t-42.5 62t-15 80.5zM178 694q0 -56 27 -87t86 -31q30 0 51.5 8t35.5 24t21 38t7 48v150 q0 28 -7 51t-21 39.5t-35.5 25t-51.5 8.5t-51.5 -8.5t-35 -25t-20 -39.5t-6.5 -51v-150zM316 0l499 1036h101l-502 -1036h-98zM733 190v154q0 46 15.5 82t43.5 62t66 40t82 14q43 0 80.5 -14t65 -40t43.5 -62t16 -82v-154q0 -46 -16 -83t-43.5 -63.5t-65 -41t-80.5 -14.5 q-44 0 -82 14.5t-66 41t-44 64.5q-15 36 -15 82zM826 194q0 -30 6 -52.5t20 -39t35.5 -24.5t52.5 -8q29 0 50 9t34.5 25t19.5 39t6 51v148q0 28 -6 50.5t-19.5 38.5t-34.5 25t-50 9q-31 0 -52.5 -8.5t-35.5 -24.5t-20 -39t-6 -51v-148z" />
<glyph unicode="&#x26;" horiz-adv-x="1118" d="M108 297q0 39 9 72t24.5 61t37 52.5t47 46.5t54.5 42q28 19 58 39q-20 23 -40.5 47.5t-37 52.5t-27 59t-10.5 67q0 48 18 88t49.5 70t75.5 46.5t97 16.5q50 0 93 -17t74.5 -47t48.5 -71q17 -40 17 -88q0 -32 -8.5 -59t-24 -50t-37.5 -43t-48 -37q-14 -9 -28 -19 q-12 -8 -24.5 -17t-21.5 -15l264 -312q14 22 25 46t18 52t10 61.5t5 76.5h114q-2 -102 -24 -182t-72 -140l168 -196h-156l-94 112q-16 -14 -43 -35t-66 -40t-90 -33t-115 -14q-78 0 -140.5 22t-107 63t-68.5 97t-24 125zM228 301q0 -46 16 -83.5t45 -64.5t69 -42t88 -15 q28 0 58 5t60.5 16t63 30t66.5 47l-288 338q-33 -23 -65.5 -46.5t-57.5 -50.5t-40 -60t-15 -74zM344 838q0 -18 4.5 -35t15 -36t28.5 -42t44 -53q7 6 16 12q10 4 18 10l20 12q18 13 34.5 26.5t30 28.5t21.5 33t8 40q0 26 -9 47.5t-25.5 38t-38.5 25.5t-48 9q-27 0 -49 -8.5 t-37.5 -24t-24.5 -37.5q-8 -20 -8 -46z" />
<glyph unicode="'" horiz-adv-x="407" d="M142 792v269h124v-269h-124z" />
<glyph unicode="(" horiz-adv-x="456" d="M142 150v827q0 20 0.5 41t4 41.5t9.5 40.5t18 38q11 20 23 37t25.5 33t29.5 32t34 36l78 -78l-26 -26t-22 -24l-20 -24t-18 -28q-11 -24 -17.5 -57t-6.5 -73v-806q0 -38 7 -71t17 -59q8 -15 18 -27.5t20 -24.5t22 -24l26 -26l-78 -76l-34 34t-29.5 32t-25.5 32t-23 36 q-12 21 -18 41t-9.5 40.5t-4 40.5t-0.5 42z" />
<glyph unicode=")" horiz-adv-x="456" d="M90 -72l26 26t22.5 24t20 25t17.5 27q11 25 18 58q6 34 6 72v806q0 39 -6 72q-7 34 -18 58q-8 16 -17.5 28t-20 24t-22.5 24l-26 26l78 78q18 -20 34 -36t30 -32t26 -33t22 -37q22 -38 28 -79t6 -82v-827q0 -21 -1.5 -41.5t-5 -41t-9.5 -41.5q-8 -20 -18 -40 q-10 -19 -22 -35.5t-26 -32.5t-30 -32l-34 -34z" />
<glyph unicode="*" horiz-adv-x="753" d="M108 682l191 102l-191 105l46 75l182 -112l-4 217h92l-8 -217l186 112l45 -75l-191 -105l191 -102l-45 -78l-186 113l8 -219h-92l4 219l-182 -113z" />
<glyph unicode="+" horiz-adv-x="848" d="M94 370v107h276v277h107v-277h277v-107h-277v-276h-107v276h-276z" />
<glyph unicode="," horiz-adv-x="415" d="M137 140h139v-242l-139 -126v368z" />
<glyph unicode="-" horiz-adv-x="688" d="M127 370v107h434v-107h-434z" />
<glyph unicode="." horiz-adv-x="426" d="M133 74q0 16 6.5 30t17.5 25t25.5 18t30.5 7q17 0 32 -7t26 -18t17.5 -25t6.5 -30q0 -17 -6.5 -32t-17.5 -26t-26 -17.5t-32 -6.5q-16 0 -30.5 6.5t-25.5 17.5t-17.5 26t-6.5 32z" />
<glyph unicode="/" horiz-adv-x="545" d="M-12 -116l450 1359h115l-453 -1359h-112z" />
<glyph unicode="0" d="M84 276v484q0 65 22.5 117.5t62 89.5t94 57t118.5 20t118.5 -20t94.5 -57t63 -89.5t23 -117.5v-484q0 -64 -23 -116t-63 -90t-95 -59t-118 -21q-64 0 -118.5 21t-94 59t-62 90t-22.5 116zM198 280q0 -40 12 -74t35.5 -59.5t57.5 -40t78 -14.5t77.5 14.5t57 40t35.5 59.5 t12 74v474q0 42 -12 77t-35.5 61t-57.5 41t-77 15q-44 0 -78 -15t-57.5 -41t-35.5 -62q-12 -34 -12 -76v-474z" />
<glyph unicode="1" d="M170 738v130l202 168h116v-1036h-118v912z" />
<glyph unicode="2" d="M86 0v96l422 520q29 36 45.5 72t16.5 78q0 40 -13 74t-36 58t-57.5 37t-78.5 13q-36 0 -69 -10t-58 -33t-40 -58t-15 -85h-115q0 62 21 114t59.5 89.5t93 58t123.5 20.5q66 0 121.5 -19t95.5 -55t62 -87.5t22 -116.5q0 -31 -6 -58t-17 -52t-27.5 -49.5t-37.5 -49.5 l-372 -457h460v-100h-600z" />
<glyph unicode="3" d="M47 270h117q3 -48 20.5 -82.5t45 -57t62.5 -32.5q34 -10 72 -10q44 0 82 13t65 38t43 61q16 34 16 80q0 48 -12.5 85t-38 62t-64.5 38.5t-93 13.5h-26v101h26q96 0 141.5 48t45.5 136q0 44 -14.5 78t-39 57t-58 35t-73.5 12q-42 0 -75 -11.5t-57 -33.5t-38 -53.5 t-18 -71.5h-116q4 64 29 114t65.5 84t94.5 52q53 18 115 18q66 0 122 -19.5t96 -56t62 -88.5t22 -116q0 -80 -34 -138q-36 -58 -102 -92q78 -30 117 -94t39 -162q0 -72 -25 -126t-69 -91t-102 -56q-60 -19 -126 -19q-64 0 -120 17t-99 52.5t-69 89t-29 125.5z" />
<glyph unicode="4" d="M39 164v100l387 772h129l-389 -770h303v293h115v-293h131v-102h-131v-164h-115v164h-430z" />
<glyph unicode="5" d="M90 252h115q9 -77 53 -119.5t125 -42.5q42 0 76 13t57 34q20 18 31 42.5t16.5 52t7 56t1.5 56.5q0 30 -3 61t-10 58t-19 51t-31.5 41t-47 27t-65.5 10q-34 0 -64 -7t-52 -20.5t-38 -32t-23 -40.5h-103v544h550v-98h-447v-314q34 30 81.5 48t107.5 18q64 0 110 -18t78 -50 q30 -29 49 -62t29 -68.5t13 -73t3 -74.5q0 -38 -3 -75t-12 -72t-27 -67t-48 -60q-38 -38 -91 -60t-126 -22q-34 0 -65.5 5.5t-59 16t-51 24.5t-41.5 32q-36 36 -53.5 82t-22.5 104z" />
<glyph unicode="6" d="M53 320q0 30 5.5 60t15.5 61t23.5 63t29.5 68l243 464h128l-214 -412q28 12 58 20t62 8q44 0 83 -11t72.5 -32t61 -49.5t46.5 -64.5t29 -77.5t10 -87.5q0 -72 -22.5 -134t-65 -107t-102.5 -71t-135 -26q-74 0 -134.5 23.5t-103.5 66.5t-66.5 103.5t-23.5 134.5zM170 326 q0 -52 15 -94t43 -72t66.5 -47t84.5 -17q47 0 86.5 17t68 47t44.5 72t16 94q0 46 -14 86t-42 70.5t-68 48.5t-91 18q-46 0 -84.5 -15.5t-66.5 -45t-43 -71t-15 -91.5z" />
<glyph unicode="7" d="M96 778v258h602v-96l-370 -940h-125l373 938h-365v-160h-115z" />
<glyph unicode="8" d="M60 284q0 46 11.5 85t32 70t49 56t62.5 43q-30 18 -54.5 41t-42 51t-27 63t-9.5 75q0 60 22.5 111t62.5 88t94.5 57t119.5 20q64 0 119.5 -20t95.5 -57t63 -88t23 -111q0 -40 -10 -75t-27 -63t-42 -51t-56 -41q33 -18 61 -43t49 -56t32 -70t11 -85q0 -64 -24 -118 t-67 -93t-101.5 -61t-126.5 -22t-126.5 22t-102 61t-68 93t-24.5 118zM176 286q0 -42 15.5 -77t43 -61t65 -41t81.5 -15t81.5 15t64.5 41t43 61t16 77q0 43 -16 79.5t-43 63.5t-65 42t-81 15q-44 0 -81.5 -15t-65 -42t-43 -63t-15.5 -80zM198 766q0 -40 14 -74t38 -57 t57.5 -36t73.5 -13q42 0 75.5 13t57 36t36.5 57t13 74q0 39 -13 72.5t-36.5 57.5t-57.5 38t-75 14q-40 0 -73.5 -14t-57.5 -38t-38 -57.5t-14 -72.5z" />
<glyph unicode="9" d="M53 706q0 72 22.5 134t64.5 107t102 70t135 25q74 0 134.5 -23t104 -65.5t67 -103t23.5 -133.5q0 -32 -5 -61.5t-15 -60.5t-23.5 -63t-29.5 -67l-244 -465h-127l211 410q-26 -10 -55 -18q-30 -7 -62 -7q-66 0 -121 24.5t-95.5 67.5t-63.5 101.5t-23 127.5zM166 710 q0 -45 14 -85.5t41.5 -70.5t67 -48t90.5 -18q47 0 86 15.5t66.5 45t43 70.5t15.5 91q0 52 -15.5 94t-43 72.5t-66.5 47t-86 16.5t-86 -16.5t-67 -47t-44 -72.5t-16 -94z" />
<glyph unicode=":" horiz-adv-x="471" d="M176 72q0 16 6 30t17 25t25.5 18t31.5 7t31.5 -7t25.5 -18t17 -25t6 -30q0 -17 -6 -32t-17 -26t-25.5 -17.5t-31.5 -6.5t-31.5 6.5t-25.5 17.5t-17 26t-6 32zM176 588q0 16 6 30.5t17 25t25.5 17.5t31.5 7t31.5 -7t25.5 -17.5t17 -25t6 -30.5q0 -17 -6 -32t-17 -26 t-25.5 -17.5t-31.5 -6.5t-31.5 6.5t-25.5 17.5t-17 26t-6 32z" />
<glyph unicode=";" horiz-adv-x="471" d="M176 588q0 16 6 30.5t17 25t25.5 17.5t31.5 7t31.5 -7t25.5 -17.5t17 -25t6 -30.5q0 -17 -6 -32t-17 -26t-25.5 -17.5t-31.5 -6.5t-31.5 6.5t-25.5 17.5t-17 26t-6 32zM184 140h142v-242l-142 -126v368z" />
<glyph unicode="&#x3c;" horiz-adv-x="846" d="M80 426v94l688 266v-116l-528 -197l528 -199v-114z" />
<glyph unicode="=" horiz-adv-x="848" d="M94 240v102h660v-102h-660zM94 506v106h660v-106h-660z" />
<glyph unicode="&#x3e;" horiz-adv-x="846" d="M80 160v114l526 199l-526 197v116l688 -266v-94z" />
<glyph unicode="?" horiz-adv-x="737" d="M92 780q0 58 22 108t60 87t90 58t113 21q60 0 111.5 -19.5t90.5 -55t61 -85t22 -108.5q0 -27 -5 -50.5t-14 -45.5t-21.5 -43.5t-27.5 -42.5l-123 -172q-7 -10 -12 -21t-8 -23t-5 -22t-2 -18v-59h-116v61q0 42 13 75t36 67l119 172q10 15 19 29t16 28.5t11.5 30.5t4.5 34 q0 36 -12.5 67t-35.5 53t-54 34t-68 12q-38 0 -69.5 -14t-53.5 -37t-34 -55q-11 -32 -11 -66h-117zM312 66q0 16 5.5 30t15.5 24.5t24 17t30 6.5t30.5 -6.5t24.5 -17t16.5 -24.5t6.5 -30t-6.5 -30.5t-16.5 -25t-24.5 -16.5t-30.5 -6t-30 6t-24 16.5t-15.5 25t-5.5 30.5z" />
<glyph unicode="@" horiz-adv-x="1249" d="M60 524q2 80 23 153t59 136t90 114.5t116 88t137 56.5t152 20q81 0 153.5 -19t134 -53.5t110.5 -83.5t82 -110t50 -132.5t15 -151.5q-1 -48 -10.5 -92t-27.5 -82.5t-43 -70t-58.5 -54.5t-74 -36t-88.5 -13q-27 0 -49.5 7t-41.5 18t-33 26t-21 31q-26 -26 -51.5 -41.5 t-50.5 -24.5t-50 -12.5t-49 -3.5q-44 0 -79 15t-60 39.5t-42 57t-25 69.5t-8 75t6 74q12 66 37 126t64.5 105t93 72t122.5 27q24 0 45.5 -2t40.5 -8.5t36 -18t33 -31.5l9 46h107q-20 -110 -33.5 -186t-22.5 -125.5t-13.5 -77t-7.5 -41.5t-3 -17v-4q-2 -10 -3 -19.5t-1 -17.5 q0 -38 15 -55t44 -17q30 0 55.5 11.5t46.5 31t37 45t27 54.5t17 60q6 30 8 60q2 63 -12.5 120.5t-42 107.5t-67 90t-89 69t-108.5 44.5t-124 15.5q-62 0 -119.5 -16.5t-107.5 -47.5t-92 -73.5t-73 -94t-49 -110.5t-20 -123q-2 -69 13.5 -130.5t45 -113.5t70.5 -94t90 -71 t105 -44q54 -15 112 -15q38 0 80 5.5t82.5 17.5t78.5 31q39 18 71 44l63 -78q-40 -32 -86.5 -54.5t-95.5 -37.5t-98 -22t-95 -7q-81 0 -153.5 19.5t-134.5 56.5t-112 88t-84 114.5t-52 137t-16 153.5zM430 414.5q2 -26.5 9 -50.5t21.5 -43t36.5 -30t54 -11q40 0 71.5 16 t55 42t39.5 60.5t26 72t14.5 76.5t4.5 73q0 29 -6 55.5t-19 46.5t-36 32t-58 12q-29 0 -54 -11t-46 -29.5t-38 -43t-30 -52t-22 -56t-15 -54.5q-5 -24 -7.5 -51.5t-0.5 -54z" />
<glyph unicode="A" horiz-adv-x="895" d="M2 0l396 1036h102l393 -1036h-131l-86 234h-455l-86 -234h-133zM256 336h385l-191 524z" />
<glyph unicode="B" horiz-adv-x="977" d="M152 0v1036h384q70 0 129 -19t101.5 -54.5t66 -87t23.5 -115.5q0 -40 -11 -76t-31 -65t-48 -51t-60 -36q37 -14 67.5 -36.5t52 -54t33 -70.5t11.5 -85q0 -70 -23 -123t-65.5 -89.5t-102 -55t-130.5 -18.5h-397zM272 106h266q48 0 87.5 13t67 37t42.5 58.5t15 76.5 q0 43 -15 77t-42.5 57t-66.5 35q-40 13 -88 13h-266v-367zM272 582h256q43 0 80.5 10t64.5 31.5t42.5 55t15.5 79.5q0 45 -15.5 77.5t-42.5 53.5t-64 31t-81 10h-256v-348z" />
<glyph unicode="C" horiz-adv-x="932" d="M110 518q0 55 1 100.5t3.5 83.5t8.5 70.5t17.5 61t28.5 54t42 50.5q52 54 120.5 81t143.5 27q70 0 130.5 -21.5t106.5 -62t78 -99.5t46 -132h-121q-10 48 -31 86.5t-51.5 65.5t-70.5 42t-87 15q-51 0 -97 -18q-46 -20 -79 -52q-24 -24 -37.5 -52t-20.5 -68t-9 -96 t-2 -136q0 -53 0.5 -95.5t3 -75.5t7 -59t12 -47t19 -39t27.5 -34q32 -34 78.5 -53t97.5 -19q48 0 88 15t71.5 42.5t53 66t31.5 85.5h113l4 -2q-12 -74 -44 -132t-79 -98.5t-107.5 -61.5t-130.5 -21q-76 0 -143.5 28t-120.5 82q-38 36 -58.5 76t-29.5 89t-11 110t-2 143z" />
<glyph unicode="D" horiz-adv-x="1007" d="M152 0v1036h368q82 0 141 -19t101 -53.5t68.5 -82t41 -104t20 -120t5.5 -129.5t-4.5 -131t-18.5 -124t-39.5 -109t-67.5 -86t-102.5 -57t-144.5 -21h-368zM272 106h230q64 0 110 16t76 44t48 67.5t26.5 86t11 99.5t2.5 109t-3 108t-13 96.5t-28 81t-49 62.5t-75 40 t-106 14h-230v-824z" />
<glyph unicode="E" horiz-adv-x="882" d="M152 0v1036h669v-106h-549v-354h468v-107h-468v-363h549v-106h-669z" />
<glyph unicode="F" horiz-adv-x="829" d="M152 0v1036h649v-106h-529v-369h449v-109h-449v-452h-120z" />
<glyph unicode="G" horiz-adv-x="946" d="M112 518q0 55 1 100.5t3.5 83.5t8.5 70.5t17.5 61t28.5 54t42 50.5q52 54 119.5 81t144.5 27q74 0 136.5 -23.5t109.5 -66t77 -100.5t42 -127h-119q-10 49 -32.5 88t-53.5 66.5t-72 42t-88 14.5q-52 0 -97.5 -19t-78.5 -53q-24 -24 -37.5 -52t-20.5 -67t-9 -95t-2 -136 q0 -53 0.5 -95.5t3 -75.5t7 -59t12 -47t19 -39t27.5 -34q32 -34 77.5 -53t98.5 -19q28 0 54.5 6t51.5 17t46 27t39 38q32 38 45.5 82t13.5 102v74h-254v105h371v-168q0 -44 -5 -81.5t-16 -69.5t-28 -61t-41 -55q-56 -60 -126 -91t-151 -31q-76 0 -143.5 28t-120.5 82 q-38 36 -58.5 76t-29.5 89t-11 110t-2 143z" />
<glyph unicode="H" horiz-adv-x="1040" d="M152 0v1036h120v-460h496v460h121v-1036h-121v469h-496v-469h-120z" />
<glyph unicode="I" horiz-adv-x="444" d="M162 0v1036h118v-1036h-118z" />
<glyph unicode="J" horiz-adv-x="721" d="M6 88l82 78q13 -14 28 -27t34.5 -22.5t44 -15t57.5 -5.5q52 0 92 16t68 45.5t42.5 73.5t14.5 101v704h119v-720q0 -76 -25 -136t-69.5 -102.5t-106 -65t-135.5 -22.5t-134 24t-112 74z" />
<glyph unicode="K" horiz-adv-x="954" d="M152 0v1036h120v-582l490 582h152l-340 -401l384 -635h-137l-329 545l-220 -256v-289h-120z" />
<glyph unicode="L" horiz-adv-x="813" d="M152 0v1036h120v-930h516v-106h-636z" />
<glyph unicode="M" horiz-adv-x="1220" d="M152 0v1036h108l356 -739l344 739h109v-1036h-121v774l-282 -608h-105l-289 606v-772h-120z" />
<glyph unicode="N" horiz-adv-x="1102" d="M152 0v1036h100l578 -821v821h120v-1036h-100l-578 824v-824h-120z" />
<glyph unicode="O" horiz-adv-x="942" d="M106 518q0 55 1 100.5t3.5 83.5t8.5 70.5t17.5 61t28.5 54t42 50.5q54 54 120.5 81t145.5 27q76 0 143 -28q68 -28 122 -80q24 -25 41 -50.5t28 -54t16.5 -61t8 -70.5t3.5 -83.5t1 -100.5q0 -82 -2 -143t-11 -110t-29 -89t-56 -76q-54 -53 -121.5 -81.5t-143.5 -28.5 q-79 0 -145.5 28t-120.5 82q-38 36 -58.5 76t-29.5 89t-11 110t-2 143zM226 518q0 -80 2 -135t9.5 -94t21.5 -67t38 -52q31 -36 77 -55t99 -19q50 0 96 19t80 55q23 24 36.5 52t20.5 67t9 94t2 135t-2 136t-9 95t-20.5 67t-36.5 52q-34 34 -80.5 53t-95.5 19 q-52 0 -98.5 -19t-77.5 -53q-24 -24 -38 -52t-21.5 -67t-9.5 -95t-2 -136z" />
<glyph unicode="P" horiz-adv-x="913" d="M152 0v1036h380q74 0 135 -21t105 -60.5t68 -96.5t24 -127t-24 -126.5t-68 -96.5t-105 -61t-135 -21h-260v-426h-120zM272 528h250q50 0 90.5 13t70 39t45.5 63.5t16 87.5t-16 87.5t-45.5 62.5t-70 37t-90.5 12h-250v-402z" />
<glyph unicode="Q" horiz-adv-x="942" d="M106 518q0 55 1 100.5t3.5 83.5t8.5 70.5t17.5 61t28.5 54t42 50.5q54 54 120.5 81t145.5 27q76 0 143 -28q68 -28 122 -80q24 -25 41 -50.5t28 -54t16.5 -61t8 -70.5t3.5 -83.5t1 -100.5q0 -74 -2 -131.5t-8.5 -103.5t-21 -83t-40.5 -69l114 -113l-71 -67l-113 113 q-46 -36 -102.5 -55t-118.5 -19q-79 0 -145.5 28t-120.5 82q-38 36 -58.5 76t-29.5 89t-11 110t-2 143zM226 518q0 -80 2 -135t9.5 -94t21.5 -67t38 -52q31 -36 77 -55t99 -19q39 0 73 12t66 36l-128 128l71 72l123 -125q13 23 20.5 50t11.5 62.5t5.5 81t1.5 105.5 q0 80 -2 136t-9 95t-20.5 67t-36.5 52q-34 34 -80.5 53t-95.5 19q-52 0 -98.5 -19t-77.5 -53q-24 -24 -38 -52t-21.5 -67t-9.5 -95t-2 -136z" />
<glyph unicode="R" horiz-adv-x="977" d="M152 0v1036h411q70 0 129.5 -19.5t102 -57t66 -90.5t23.5 -119q0 -57 -17 -104t-47.5 -82.5t-73 -59.5t-92.5 -35q62 -118 127 -235.5t127 -233.5h-138l-244 456h-254v-456h-120zM272 561h281q46 0 84.5 11.5t66.5 34.5t43 58.5t15 82.5q0 46 -15 79.5t-43 56.5 t-66.5 34.5t-84.5 11.5h-281v-369z" />
<glyph unicode="S" horiz-adv-x="825" d="M56 129l75 80q32 -32 62.5 -53.5t64.5 -34.5t71 -19t81 -6q54 0 98 13t75 37t47 58q17 34 17 78q0 42 -13.5 73t-37.5 52t-57 34t-72 18l-119 16q-56 8 -105 29t-86 55.5t-58 83.5t-21 111q0 65 23 118.5t67 91.5t106 59t138 21q48 0 90 -6.5t79 -21t71 -36.5t67 -52 l-74 -74q-24 22 -49 39t-53.5 28t-61.5 17t-73 6q-50 0 -90 -14t-67 -39t-41 -59t-14 -76q0 -37 14.5 -66t39 -50.5t57.5 -34.5t70 -19l111 -18q54 -9 104 -30.5t88 -56.5t61 -84t23 -113q0 -68 -26 -122t-73 -92t-112 -59t-145 -21q-58 0 -107 8t-91.5 25t-80 43t-73.5 63z " />
<glyph unicode="T" horiz-adv-x="786" d="M22 930v106h740v-106h-312v-930h-118v930h-310z" />
<glyph unicode="U" horiz-adv-x="1007" d="M137 344v692h123v-684q0 -58 16.5 -105t48 -80.5t76.5 -52t103 -18.5t103 18.5t77 52t49 80.5t17 105v684h120v-692q0 -78 -26.5 -143t-75 -112t-115.5 -73t-149 -26t-149 26t-116 73t-75.5 112t-26.5 143z" />
<glyph unicode="V" horiz-adv-x="819" d="M8 1036h127l273 -821l272 821h131l-352 -1036h-101z" />
<glyph unicode="W" horiz-adv-x="1259" d="M10 1036h130l204 -827q58 206 116 414q58 207 116 413h108l232 -827q50 206 102 414q50 207 102 413h130l-275 -1036h-113l-234 826l-230 -826h-116z" />
<glyph unicode="X" horiz-adv-x="792" d="M-2 0l330 530l-308 506h142l234 -399l235 399h139l-307 -506l329 -530h-140l-256 430l-259 -430h-139z" />
<glyph unicode="Y" horiz-adv-x="770" d="M6 1036h131l248 -487l248 487h131l-318 -606v-430h-120v430z" />
<glyph unicode="Z" horiz-adv-x="817" d="M74 0v110l526 820h-506v106h648v-96l-533 -834h533v-106h-668z" />
<glyph unicode="[" horiz-adv-x="467" d="M142 -116v1359h278v-103h-166v-1156h166v-100h-278z" />
<glyph unicode="\" horiz-adv-x="545" d="M-6 1239h112l451 -1355h-115z" />
<glyph unicode="]" horiz-adv-x="467" d="M49 -16h166v1156h-166v103h281v-1359h-281v100z" />
<glyph unicode="^" horiz-adv-x="829" d="M104 565l260 483h103l258 -483h-117l-192 363l-195 -363h-117z" />
<glyph unicode="_" horiz-adv-x="829" d="M0 -180h830v-92h-830v92z" />
<glyph unicode="`" horiz-adv-x="772" d="M205 1073h131l158 -243h-115z" />
<glyph unicode="a" horiz-adv-x="796" d="M60 219q0 52 17 94.5t51 73t85 47t117 16.5h233v70q0 42 -11 74t-35 53t-61.5 32t-91.5 11q-34 0 -62 -5t-52 -16t-45 -27.5t-39 -39.5l-76 70q30 33 59 55t61.5 35.5t70.5 18.5q37 5 85 5q156 0 234 -64q78 -66 78 -194v-528h-115v76q-24 -24 -47.5 -40t-49.5 -26.5 t-57 -15t-69 -4.5q-54 0 -104.5 13t-89.5 40.5t-62.5 71t-23.5 104.5zM170 221q0 -68 43 -100.5t135 -32.5q26 0 49 1.5t45 7t42 15.5q20 12 40 30t30 50q9 32 9 82v80h-219q-88 0 -131 -32t-43 -101z" />
<glyph unicode="b" horiz-adv-x="841" d="M123 0v1126h115v-436q24 29 50 47.5t54 29.5t58 15t63 4q60 0 105 -15t78.5 -42t55.5 -64t35 -81.5t19 -94t6 -100.5q0 -48 -5 -96.5t-18 -92.5t-35 -82.5t-55 -67t-79 -44.5t-107 -16q-32 0 -63.5 7t-60.5 21.5t-55 37t-46 52.5v-108h-115zM238 389q0 -30 5.5 -64.5 t17 -67.5t28 -63t39 -52.5t50.5 -36t62 -13.5q44 0 76 11.5t55 32t37 48.5t22.5 61t11.5 69.5t3 74.5t-3 74.5t-11.5 70t-22.5 62t-37 48.5t-55 32t-76 12t-76 -12t-54.5 -32t-36.5 -48.5t-22 -62t-10.5 -70t-2.5 -74.5z" />
<glyph unicode="c" horiz-adv-x="753" d="M90 389q0 100 26 174.5t72.5 124t110 74t137.5 24.5q41 0 75 -5t64.5 -18.5t59.5 -36t59 -54.5l-78 -72q-22 24 -42 41t-41 27t-45 15t-52 5q-42 0 -76 -11.5t-60 -32t-44 -48.5t-30 -61t-17.5 -70t-5.5 -76q0 -36 5 -71.5t16.5 -68.5t29.5 -62t44 -50t60 -33t78 -12 q28 0 52 4.5t45 15t41 27.5t42 41l78 -74q-31 -33 -59.5 -55t-59 -35.5t-64.5 -19.5t-75 -6q-74 0 -137.5 25t-110 75t-72.5 124.5t-26 174.5z" />
<glyph unicode="d" horiz-adv-x="841" d="M80 389q0 51 6 100.5t19 94t35 81.5t55.5 64t79 42t104.5 15q33 0 63 -4t58 -15t54 -29.5t50 -47.5v436h115v-1126h-115v108q-20 -31 -46 -53t-54.5 -36.5t-60 -21.5t-64.5 -7q-61 0 -107 16t-79 44.5t-55 67t-35 82.5t-18 92.5t-5 96.5zM196 389q0 -38 3 -74.5t12 -69.5 t23 -61t37 -48.5t56 -32t77 -11.5q33 0 60.5 13.5t50 36t39 52.5t28 63t17 67t5.5 65q0 38 -3 74.5t-10.5 70t-21.5 62t-36.5 48.5t-54.5 32q-30 12 -74 12t-77 -12t-56 -32t-37 -48.5t-23 -62t-12 -70t-3 -74.5z" />
<glyph unicode="e" horiz-adv-x="803" d="M78 389q0 94 22 168.5t64 125t102 77t136 26.5t136 -26t101.5 -74.5t63.5 -118t22 -155.5v-52h-533q0 -64 15.5 -114t45 -85t72.5 -53t99 -18q34 0 62 5t53 16t47 27.5t45 39.5l77 -66q-30 -31 -59 -53.5t-63 -38t-74 -23t-90 -7.5q-78 0 -141 23.5t-108 72t-70 124.5 t-25 179zM192 444h416q-2 30 -7 60t-16 57t-27 51t-38.5 41t-52 27t-65.5 10q-54 0 -93 -20t-64 -54t-37 -78q-12 -46 -16 -94z" />
<glyph unicode="f" horiz-adv-x="442" d="M41 690v88h101v146q0 44 12 82t37 67t62 45t87 16h82v-98h-62q-56 0 -81 -30t-25 -84v-144h168v-88h-168v-690h-112v690h-101z" />
<glyph unicode="g" horiz-adv-x="841" d="M84 398q0 48 5 95t17 90t34 80t54.5 65t78 43t106.5 15q33 0 64 -4t59 -15t54 -31t50 -52v94h113v-813q0 -73 -22 -134t-64.5 -105.5t-104.5 -69t-143 -24.5q-46 0 -82.5 6t-68.5 18t-62 32q-30 19 -60 46l74 74q23 -18 43.5 -33t42 -25t48 -15t61.5 -5q58 0 100.5 18.5 t69.5 51t40 76.5t13 94v120q-26 -29 -52 -47.5t-54 -29.5t-58 -15t-63 -4q-58 0 -102.5 16t-76.5 44t-54 66t-35 83t-19 94t-6 101zM196 398q0 -37 3 -73.5t12 -70.5t23.5 -62.5t38 -50t55.5 -33.5q34 -12 78 -12t75 12t53 33.5t36 50t21.5 62.5t10 70.5t2.5 73.5 q0 34 -4 69t-12.5 67t-23.5 60t-37.5 49t-53.5 33t-71 12q-44 0 -77 -11.5t-56 -32t-37 -48.5t-22 -60t-11 -68q-3 -34 -3 -70z" />
<glyph unicode="h" horiz-adv-x="852" d="M123 0v1126h115v-434q44 50 98 72t120 22t118 -20t88 -57t54.5 -90t18.5 -119v-500h-113v482q0 52 -13 90t-38 64t-60 39t-79 13q-42 0 -77 -15t-61.5 -43t-41 -66t-14.5 -82v-482h-115z" />
<glyph unicode="i" horiz-adv-x="397" d="M121 1063q0 16 6 29.5t16.5 24t24.5 16t30 5.5t30.5 -5.5t25 -16t16.5 -24t6 -29.5t-6 -30.5t-16.5 -24.5t-25 -16.5t-30.5 -6.5t-30 6.5t-24.5 16.5t-16.5 24.5t-6 30.5zM142 0h112v778h-112v-778z" />
<glyph unicode="j" horiz-adv-x="397" d="M-24 -270v-98h80q52 0 89 16t61 44t36 66t12 82v938h-112v-934q0 -28 -5.5 -49.5t-17.5 -36t-32 -21.5t-50 -7h-61zM121 1063q0 16 6 29.5t16.5 24t24.5 16t30 5.5t30.5 -5.5t25 -16t16.5 -24t6 -29.5t-6 -30.5t-16.5 -24.5t-25 -16.5t-30.5 -6.5t-30 6.5t-24.5 16.5 t-16.5 24.5t-6 30.5z" />
<glyph unicode="k" horiz-adv-x="801" d="M123 0v1126h115v-754l352 406h141l-264 -296l309 -482h-141l-246 400l-151 -174v-226h-115z" />
<glyph unicode="l" horiz-adv-x="413" d="M123 209v917h117v-915q0 -28 5 -49t17 -35t32 -21.5t50 -7.5h62v-98h-84q-52 0 -89.5 16t-62 43.5t-36 66t-11.5 83.5z" />
<glyph unicode="m" horiz-adv-x="1366" d="M123 0v778h115v-104q39 56 96.5 84t121.5 28q82 0 143 -32t97 -96q92 128 258 128q60 0 112.5 -21t91 -59t60 -91t21.5 -117v-498h-117v479q0 52 -13 91.5t-37.5 65.5t-60 39t-79.5 13q-42 0 -78 -13t-62 -38t-40 -61t-14 -82v-494h-114v479q0 52 -13.5 91.5t-38.5 65.5 t-60.5 39t-79.5 13q-40 0 -75 -19t-62 -51t-42 -73t-15 -84v-461h-115z" />
<glyph unicode="n" horiz-adv-x="852" d="M123 0v778h115v-104q39 52 94 82q54 30 124 30q62 0 114 -21t88 -59t56.5 -91t20.5 -117v-498h-113v479q0 52 -13 91.5t-38 65.5t-60.5 39t-78.5 13q-37 0 -71.5 -18.5t-62.5 -49t-44 -71.5t-16 -84v-465h-115z" />
<glyph unicode="o" horiz-adv-x="827" d="M84 389q0 50 7 99.5t23 93.5t42 82t62 65t85 42t111 15q60 0 107.5 -14t84 -40.5t62.5 -63t43 -80.5t25 -94.5t8 -104.5q0 -50 -7 -99.5t-23 -94t-41.5 -82t-62 -65t-85.5 -43t-111 -15.5q-89 0 -152 32t-102.5 87t-57.5 127t-18 153zM196 389q0 -34 4 -68.5t13.5 -67.5 t25.5 -62t40 -51t57.5 -35t77.5 -13q42 0 74 11.5t56 32t41 48.5t27 61t14.5 69.5t4.5 74.5q0 34 -3.5 69.5t-11.5 69t-23.5 63t-40 51t-58.5 34t-80 12.5q-42 0 -74 -12t-56 -33t-41 -50t-27 -62t-15 -69t-5 -73z" />
<glyph unicode="p" horiz-adv-x="841" d="M123 -348v1126h115v-108q21 30 46.5 52t54.5 36.5t60 21t64 6.5q61 0 107 -16t79 -44t55 -66t35 -82t18 -92.5t5 -96.5q0 -52 -6 -101.5t-19 -93.5t-35 -82t-55.5 -65t-79 -42t-104.5 -15q-32 0 -62.5 4t-58.5 15.5t-54 30t-50 48.5v-436h-115zM238 389q0 -38 2.5 -74.5 t10.5 -70t22 -62t36.5 -48.5t54.5 -32t76 -12t76 12t55 32t37 48.5t22.5 62t11.5 70t3 74.5t-3 74.5t-11.5 69.5t-22.5 61t-37 48.5t-55 32t-76 11.5q-34 0 -62 -13.5t-50.5 -36t-39 -52.5t-28 -63t-17 -67t-5.5 -65z" />
<glyph unicode="q" horiz-adv-x="841" d="M80 389q0 48 5 96.5t18 92.5t35 82t55 66t79 44t107 16q33 0 64.5 -6.5t60 -21t54.5 -36.5t46 -52v108h115v-1126h-115v436q-24 -30 -50 -48.5t-54 -30t-58 -15.5t-63 -4q-60 0 -105 15t-78.5 42t-55.5 65t-35 82t-19 93.5t-6 101.5zM196 389q0 -38 3 -74.5t12 -70 t23 -62t37 -48.5t56 -32t77 -12t75 12t53.5 32t36.5 48.5t21.5 62t10.5 70t3 74.5q0 30 -5.5 64.5t-17 67.5t-28 63t-39 52.5t-50.5 36t-60 13.5q-44 0 -77 -11.5t-56 -32t-37 -48.5t-23 -61t-12 -69.5t-3 -74.5z" />
<glyph unicode="r" horiz-adv-x="551" d="M123 0v778h115v-104q16 24 39.5 45t52 36t60.5 23t66 8q36 0 65 -5t59 -19l-74 -92q-17 10 -36.5 14t-45.5 4q-40 0 -74 -18t-59 -47t-39 -67t-14 -79v-477h-115z" />
<glyph unicode="s" horiz-adv-x="745" d="M72 102l68 76q42 -49 98 -69.5t122 -20.5q89 0 139 35t50 105q0 50 -27.5 79t-87.5 33l-120 10q-103 11 -158.5 62.5t-55.5 148.5q0 53 20 95t55 71t83 44t104 15q79 0 144.5 -20t113.5 -62l-69 -76q-40 32 -86.5 47t-104.5 15q-76 0 -115.5 -33t-39.5 -94 q0 -24 6.5 -44.5t21.5 -34.5t38 -23t57 -13l114 -10q46 -4 85 -17t67 -38t44 -63t16 -92q0 -56 -22 -100.5t-61 -75t-93 -46.5t-118 -16q-44 0 -83 6t-75 19.5t-69 35t-61 51.5z" />
<glyph unicode="t" horiz-adv-x="475" d="M39 690v88h98v244h113v-244h166v-88h-166v-479q0 -52 26 -83q24 -30 80 -30h60v-98h-80q-50 0 -87 16t-62 44.5t-37.5 66.5t-12.5 82v481h-98z" />
<glyph unicode="u" horiz-adv-x="854" d="M119 278v500h113v-479q0 -52 13 -91.5t38 -65.5t60.5 -39t78.5 -13q39 0 74.5 18.5t62 49.5t42 71.5t15.5 84.5v464h113v-778h-113v104q-20 -26 -43 -47t-51 -36t-59 -23t-65 -8q-62 0 -114 21t-88 59t-56.5 91t-20.5 117z" />
<glyph unicode="v" horiz-adv-x="776" d="M49 778h125l213 -624l217 624h125l-289 -778h-102z" />
<glyph unicode="w" horiz-adv-x="1220" d="M49 778h125l180 -624l207 624h99l206 -624l180 624h126l-246 -778h-109l-207 604l-204 -604h-107z" />
<glyph unicode="x" horiz-adv-x="731" d="M39 0l264 398l-252 380h135l180 -286l176 286h138l-252 -380l264 -398h-139l-187 303l-188 -303h-139z" />
<glyph unicode="y" horiz-adv-x="776" d="M49 778h125l215 -624l215 624h125l-367 -985q-25 -68 -78 -105q-52 -38 -130 -38h-50v98h36q29 0 49 5t34.5 17t24.5 31t20 45l66 170z" />
<glyph unicode="z" horiz-adv-x="717" d="M76 0v98l432 580h-410v100h543v-96l-434 -580h434v-102h-565z" />
<glyph unicode="{" horiz-adv-x="510" d="M49 512v102h43q22 0 41 8t31 21q14 14 21 37q7 24 7 58v302q0 30 3 54t8 42t14 32.5t23 27.5q12 13 27 22t35 14.5t44 8t54 2.5h59v-103h-37h-36t-26 -2t-18.5 -6t-13.5 -10q-14 -12 -18.5 -36.5t-4.5 -67.5v-297q0 -34 -7 -58.5t-19.5 -43.5t-31 -32t-40.5 -24 q22 -10 40.5 -23.5t31 -32.5t19.5 -44t7 -59v-296q0 -22 1 -38.5t3.5 -29t6.5 -21t12 -15.5q6 -6 13.5 -10t18.5 -6t26 -3t36 -1h37v-100h-59q-60 0 -98 11t-62 35q-13 13 -22.5 27.5t-14.5 32.5t-8 41.5t-3 54.5v303q0 65 -28 97q-12 10 -31 18t-41 8h-43z" />
<glyph unicode="|" horiz-adv-x="510" d="M196 -116v1359h116v-1359h-116z" />
<glyph unicode="}" horiz-adv-x="510" d="M49 -16h37q22 0 37 1t26 3t18 6t13 10q7 7 11.5 15.5t7 21t3.5 29t1 38.5v296q0 34 7 59t20 44t31.5 32t41.5 24q-23 11 -41.5 24t-31.5 32t-20 43.5t-7 58.5v297q0 43 -4.5 67.5t-18.5 36.5q-6 6 -13 10t-18 6t-26 2h-37h-37v103h61q29 0 53 -2.5t43.5 -8t35.5 -14.5 t28 -22q13 -13 21.5 -27.5t14 -32.5t8.5 -42q2 -24 2 -54v-302q0 -34 7 -57.5t21 -37.5q12 -12 31 -20.5t41 -8.5h43v-102h-43q-22 0 -41 -8t-31 -18q-28 -32 -28 -97v-303q0 -31 -2.5 -54.5t-8 -41.5t-13.5 -32t-22 -28q-13 -12 -28.5 -21t-35 -14.5t-43 -8t-53.5 -2.5h-61 v100z" />
<glyph unicode="~" horiz-adv-x="829" d="M66 418q33 33 58.5 54t49.5 33.5t47 16.5t49 4q22 0 46 -6t49 -16t50 -21.5t49.5 -21t49 -16.5t47.5 -7q16 0 30 2.5t28.5 10t32 21.5t40.5 38l72 -72q-33 -34 -59 -54.5t-49.5 -32t-46 -15.5t-48.5 -4q-24 0 -48.5 6t-49 16t-49 21t-49.5 21t-49 16t-48 6 q-17 0 -30.5 -2.5t-28.5 -10t-32.5 -22t-41.5 -37.5z" />
<glyph unicode="&#xa2;" horiz-adv-x="803" d="M92 532q0 78 18 143t53 112t85 77t116 39v113h99v-111q30 -2 58 -9.5t55.5 -22.5t55.5 -37q27 -24 56 -54l-78 -65q-38 46 -73 67.5t-74 26.5v-553q43 3 79 26.5t70 67.5l76 -63q-29 -34 -56.5 -57.5t-55 -38.5t-55.5 -22t-58 -9v-140h-99v146q-66 8 -116 37t-85 76 t-53 111t-18 140zM200 532q0 -40 8 -82.5t27 -80t51 -66t78 -39.5v537q-46 -12 -77 -38.5t-50.5 -62t-28 -79t-8.5 -89.5z" />
<glyph unicode="&#xa3;" horiz-adv-x="790" d="M45 484v88h101v155q0 74 24 134t68 102.5t107 65.5t141 23q77 0 141 -25q65 -25 123 -79l-84 -78q-16 16 -34 31t-39.5 26t-48 17t-58.5 6q-54 0 -95.5 -15.5t-69.5 -46t-42.5 -74.5t-14.5 -102v-140h240v-88h-240v-382h478v-102h-596v484h-101z" />
<glyph unicode="&#xa5;" horiz-adv-x="856" d="M49 1036h131l248 -487l248 487h131l-237 -452h174v-90h-222l-32 -64v-70h254v-90h-254v-270h-122v270h-260v90h260v70l-34 64h-226v90h176z" />
<glyph unicode="&#xa9;" horiz-adv-x="1333" d="M112 532q0 77 20 148.5t56 133.5t86.5 112t112 86t131.5 56q72 20 148 20q78 0 149 -20t132 -56t112 -86t87 -112t55 -133.5t19 -148.5q0 -76 -19 -146t-55 -131.5t-87 -112t-112 -86.5t-133 -56q-70 -20 -148 -20q-76 0 -147 20t-132.5 56t-112 86.5t-86.5 112 t-56 131.5t-20 146zM219 532q0 -60 16.5 -117t45.5 -107t70 -92t90.5 -72t106 -47t118.5 -17t119 17t106.5 47t90.5 72t70.5 92t45.5 107t16 117q0 62 -16 120t-45.5 108t-70.5 91.5t-90.5 71t-107.5 45.5q-56 17 -118 17q-61 0 -118 -16.5t-106.5 -46t-90.5 -71t-70 -91.5 t-45.5 -108t-16.5 -120zM412 536q0 64 16 121.5t50 100t85 67.5t121 25q32 0 59.5 -5.5t53 -17t50.5 -28.5t54 -41l-73 -72q-20 18 -38 31t-34.5 20.5t-34 11t-37.5 3.5q-47 0 -78.5 -18t-51.5 -47t-28 -68t-8 -83q0 -42 8 -80.5t28 -68t51.5 -46.5t78.5 -17q20 0 37.5 2.5 t34.5 10t34.5 20t39.5 32.5l63 -73l-2 -7q-26 -23 -49.5 -39t-47.5 -27t-51 -15.5t-59 -4.5q-70 0 -121 25t-85 68t-50 99.5t-16 120.5z" />
<glyph unicode="&#xab;" horiz-adv-x="850" d="M45 428l332 332v-142l-191 -190l191 -190v-142zM402 428l331 332v-142l-191 -190l191 -190v-142z" />
<glyph unicode="&#xad;" horiz-adv-x="688" d="M127 370v107h434v-107h-434z" />
<glyph unicode="&#xae;" horiz-adv-x="1333" d="M112 532q0 77 20 148.5t56 133.5t86.5 112t112 86t131.5 56q72 20 148 20q78 0 149 -20t132 -56t112 -86t87 -112t55 -133.5t19 -148.5q0 -76 -19 -146t-55 -131.5t-87 -112t-112 -86.5t-133 -56q-70 -20 -148 -20q-76 0 -147 20t-132.5 56t-112 86.5t-86.5 112 t-56 131.5t-20 146zM219 532q0 -60 16.5 -117t45.5 -107t70 -92t90.5 -72t106 -47t118.5 -17t119 17t106.5 47t90.5 72t70.5 92t45.5 107t16 117q0 62 -16 120t-45.5 108t-70.5 91.5t-90.5 71t-107.5 45.5q-56 17 -118 17q-61 0 -118 -16.5t-106.5 -46t-90.5 -71t-70 -91.5 t-45.5 -108t-16.5 -120zM490 232v604h202q39 0 74 -14.5t61.5 -39.5t41.5 -59t15 -74q0 -32 -8 -59.5t-23 -49t-36 -37.5t-47 -26l150 -245h-128l-138 233h-60v-233h-104zM594 561h90q22 0 40 6t31 17.5t20 28t7 36.5t-7 36t-20 27.5t-31 18.5t-40 7h-90v-177z" />
<glyph unicode="&#xbb;" horiz-adv-x="850" d="M116 96v142l191 190l-191 190v142l332 -332zM473 96v142l191 190l-191 190v142l334 -332z" />
<glyph unicode="&#xbc;" horiz-adv-x="1196" d="M100 840v88l130 108h79v-624h-86v526zM284 0l519 1036h94l-516 -1036h-97zM717 96v64l239 466h90l-233 -456h164v170h84v-170h79v-74h-79v-96h-84v96h-260z" />
<glyph unicode="&#xbd;" horiz-adv-x="1196" d="M100 840v88l130 108h79v-624h-86v526zM264 0l520 1036h96l-520 -1036h-96zM764 0v68l258 307q17 22 24.5 40.5t7.5 43.5q0 46 -27 73t-75 27q-21 0 -39.5 -6t-33 -19.5t-23 -34.5t-8.5 -51h-84q0 40 14 74t38.5 59t59 38.5t76.5 13.5t77 -12.5t60 -35.5t38 -55t13 -71 q0 -20 -3 -36.5t-10 -32t-17 -31t-24 -31.5l-220 -252h274v-76h-376z" />
<glyph unicode="&#xbe;" horiz-adv-x="1196" d="M76 588h88q3 -30 13.5 -50t26.5 -32.5t36 -18t40 -5.5q24 0 45.5 7t37 21t24.5 34.5t9 47.5q0 50 -30 77t-92 27h-18v74h18q56 0 82.5 26t26.5 72q0 26 -8.5 45t-23 32t-33 19.5t-40.5 6.5q-48 0 -75.5 -26.5t-30.5 -74.5h-86q4 42 20 75t41.5 55t59 34t71.5 12 q42 0 77.5 -12t60.5 -35t39 -55q14 -34 14 -74q0 -42 -19.5 -76t-53.5 -56q42 -22 64 -58.5t22 -87.5q0 -46 -16 -81t-43 -58t-64 -34t-79 -11q-40 0 -76 10t-63.5 32.5t-44.5 56.5t-20 81zM352 0q62 125 128.5 255.5t134 262.5t133.5 262t128 256h95l-523 -1036h-96z M738 96v64q57 114 118.5 232t118.5 234h92l-235 -456h164v170h86v-170h77v-74h-77v-96h-86v96h-258z" />
<glyph unicode="&#xd7;" horiz-adv-x="829" d="M92 176l250 250l-250 250l74 72l248 -250l250 250l74 -72l-250 -250l250 -250l-74 -74l-250 250l-248 -250z" />
<glyph unicode="&#xf7;" horiz-adv-x="829" d="M80 370v107h668v-107h-668zM334 158q0 17 6 31.5t17 25.5t25 18t32 7q17 0 31.5 -7t25.5 -18t18 -26t7 -31q0 -17 -7 -31.5t-18 -25.5t-26 -17t-31 -6q-17 0 -31.5 6t-25.5 17t-17 25.5t-6 31.5zM334 692q0 17 6 32t17 26t25 17.5t32 6.5q17 0 31.5 -6.5t25.5 -17.5 t18 -26t7 -32q0 -16 -7 -30.5t-18 -25.5t-26 -17.5t-31 -6.5q-17 0 -31.5 6.5t-25.5 17.5t-17 25.5t-6 30.5z" />
<glyph unicode="&#x2000;" horiz-adv-x="682" />
<glyph unicode="&#x2001;" horiz-adv-x="1365" />
<glyph unicode="&#x2002;" horiz-adv-x="682" />
<glyph unicode="&#x2003;" horiz-adv-x="1365" />
<glyph unicode="&#x2004;" horiz-adv-x="455" />
<glyph unicode="&#x2005;" horiz-adv-x="341" />
<glyph unicode="&#x2006;" horiz-adv-x="227" />
<glyph unicode="&#x2007;" horiz-adv-x="227" />
<glyph unicode="&#x2008;" horiz-adv-x="170" />
<glyph unicode="&#x2009;" horiz-adv-x="273" />
<glyph unicode="&#x200a;" horiz-adv-x="75" />
<glyph unicode="&#x2010;" horiz-adv-x="688" d="M127 370v107h434v-107h-434z" />
<glyph unicode="&#x2011;" horiz-adv-x="688" d="M127 370v107h434v-107h-434z" />
<glyph unicode="&#x2012;" horiz-adv-x="688" d="M127 370v107h434v-107h-434z" />
<glyph unicode="&#x2013;" horiz-adv-x="829" d="M72 372v103h684v-103h-684z" />
<glyph unicode="&#x2014;" horiz-adv-x="1405" d="M119 372v103h1169v-103h-1169z" />
<glyph unicode="&#x2018;" horiz-adv-x="420" d="M140 926v143l138 129v-272h-138z" />
<glyph unicode="&#x2019;" horiz-adv-x="420" d="M140 832v272h138v-144z" />
<glyph unicode="&#x201c;" horiz-adv-x="671" d="M140 926v143l138 129v-272h-138zM391 926v143l139 129v-272h-139z" />
<glyph unicode="&#x201d;" horiz-adv-x="671" d="M140 832v272h138v-144zM391 832v272h139v-144z" />
<glyph unicode="&#x2022;" horiz-adv-x="919" d="M258 418q0 42 16 78.5t44 64t65 43.5t78 16q42 0 78.5 -16t64.5 -43.5t44 -64t16 -78.5t-16 -79t-44 -64.5t-65 -43.5t-78 -16q-42 0 -78.5 16t-64.5 43.5t-44 64.5t-16 79z" />
<glyph unicode="&#x202f;" horiz-adv-x="273" />
<glyph unicode="&#x205f;" horiz-adv-x="341" />
<glyph unicode="&#x20ac;" horiz-adv-x="975" d="M60 354v96h106v68v66h-106v94h108q2 43 7.5 78.5t16 66.5t28.5 59t46 56q53 54 120.5 81t143.5 27q70 0 130.5 -21.5t107 -62t78 -99.5t45.5 -132h-121q-10 48 -31 86.5t-51 65.5t-70 42t-88 15q-51 0 -97 -18q-47 -20 -79 -52q-17 -18 -28.5 -36t-19.5 -40.5t-12 -51.5 q-6 -28 -8 -64h263v-94h-265v-66v-68h265v-96h-263q2 -36 7 -63t13 -49t20 -40t28 -34q32 -34 79 -53t97 -19q48 0 88 15t71.5 42.5t53 66t31.5 85.5h113l4 -2q-12 -74 -43.5 -132t-78.5 -98.5t-108 -61.5t-131 -21q-76 0 -143.5 28t-120.5 82q-27 26 -44.5 53t-28.5 57.5 t-17 66t-8 77.5h-108z" />
<glyph unicode="&#x2122;" horiz-adv-x="1272" d="M58 946v90h470v-90h-184v-550h-100v550h-186zM616 396v640h92l193 -364l193 364h94v-640h-100v413q-34 -64 -72 -129t-70 -127h-88l-141 258v-415h-101z" />
<glyph unicode="&#xe000;" horiz-adv-x="777" d="M0 0v778h778v-778h-778z" />
</font>
</defs>
</svg>
