<?xml version="1.0" standalone="no"?>
<!DOCTYPE svg PUBLIC "-//W3C//DTD SVG 1.1//EN" "http://www.w3.org/Graphics/SVG/1.1/DTD/svg11.dtd" >
<svg xmlns="http://www.w3.org/2000/svg">
<metadata></metadata>
<defs>
<font id="db_ozone_xlight" horiz-adv-x="0" >
<font-face units-per-em="2048" ascent="1638" descent="-410" />
<missing-glyph horiz-adv-x="428" />
<glyph unicode="&#x2b;&#x2d;" horiz-adv-x="846" d="M94 0v74h660v-74h-660zM94 434v76h293v293h78v-293h289v-76h-289v-290h-78v290h-293z" />
<glyph unicode="&#x2e;&#x2e;&#x2e;" horiz-adv-x="1167" d="M144 60q0 14 5 26.5t14 21.5t21.5 14t26.5 5t26.5 -5t21.5 -14t14 -21.5t5 -26.5t-5 -27t-14 -22t-21 -14t-27 -5q-14 0 -26.5 5t-21.5 14t-14 22t-5 27zM516 60q0 14 5 26.5t14 21.5t21 14q14 5 28 5t26.5 -5t21.5 -14t14.5 -21.5t5.5 -26.5t-5.5 -27t-14.5 -22 t-21.5 -14t-26.5 -5t-27 5t-22 14t-14 22t-5 27zM884 60q0 14 5.5 26.5t14.5 21.5t21.5 14t26.5 5t27 -5t22 -14t14 -21.5t5 -26.5t-5 -27t-14 -22t-21 -14q-14 -5 -28 -5t-26.5 5t-21.5 14t-14.5 22t-5.5 27z" />
<glyph unicode="&#x3c;&#x3d;" horiz-adv-x="848" d="M94 35h660v77h-660v-77zM94 434v76l660 256v-84l-562 -209l562 -209v-84z" />
<glyph unicode="&#x3e;&#x3d;" horiz-adv-x="846" d="M94 35v77h660v-77h-660zM94 180v84l562 209l-562 209v84l660 -256v-76z" />
<glyph unicode="&#xe4f;&#x22;" horiz-adv-x="1046" d="M106 410q0 58 15 111t42 99.5t65 85t84 65.5t98.5 42t109.5 15q58 0 111.5 -15t100 -42t84.5 -65.5t65 -85t42 -99.5t15 -111q0 -56 -15 -109t-42 -99t-65 -84t-84.5 -65t-100 -42t-111.5 -15q-56 0 -109 15t-99 42t-84 65t-65 84t-42 98.5t-15 109.5zM188 410 q0 -46 12 -88t34 -79t52 -67.5t67 -52t79 -33.5t88 -12t89 12t81 33.5t68 52t52 67.5t34 79t12 88q0 70 -26 131t-72 106.5t-107 72t-131 26.5q-46 0 -88 -12t-79 -34t-67 -52.5t-52 -68t-34 -80.5t-12 -89zM299 410q0 46 17.5 86.5t47.5 71t70.5 48t85.5 17.5 q46 0 87 -17.5t71 -48t48 -71t18 -86.5q0 -45 -18 -85.5t-48 -70.5t-71 -48t-87 -18q-45 0 -85.5 18t-70.5 48t-47.5 70.5t-17.5 85.5zM358 1200h109l-13 -266h-84zM381 410q0 -28 11 -54t30 -45t44.5 -30t53.5 -11q29 0 55 11t45 30t30 45q12 26 12 54q0 29 -11.5 54.5 t-30.5 44.5t-45 30.5t-55 11.5q-28 0 -53.5 -11.5t-44.5 -30.5t-30 -44.5t-11 -54.5zM572 1200h108l-12 -266h-84z" />
<glyph unicode="&#xe0e;&#xe3a;" horiz-adv-x="925" d="M68 78q40 -2 61 10.5t30 32.5t10 43.5t1 44.5v303l-76 108q63 108 152.5 162t212.5 54q86 0 150 -21t106.5 -62t64 -100t21.5 -135v-574q0 -27 -13.5 -50.5t-35.5 -38.5t-52 -17t-63 14l-189 90q-11 5 -18.5 5.5t-17.5 -5.5l-197 -102l-43 56l224 114q10 6 18 8t16 2 t16 -3t19 -7l205 -92q8 -4 15 -3.5t13.5 4t10 11t3.5 17.5v557q0 70 -17 118.5t-49 79t-80 44.5t-110 14q-36 0 -71 -6t-69 -22t-64 -43q-32 -27 -56 -71l64 -94v-336q0 -42 -9 -72.5t-23.5 -51.5t-33 -33.5t-38.5 -19.5t-39 -9t-35 -2zM670 -318q0 14 5 26.5t14.5 22 t22 14.5t26.5 5t26 -5t21 -14.5t14.5 -22t5.5 -26.5t-5.5 -26t-14.5 -21t-21 -15q-12 -5 -26 -5t-26.5 5.5t-22 14.5t-14.5 21t-5 26z" />
<glyph unicode="&#xe0f;&#xe3a;" horiz-adv-x="925" d="M70 76q40 -2 61 10.5t30 32.5t10 43.5t1 44.5v305l-76 108q62 108 152 162t213 54q86 0 150 -21t106.5 -62t64 -100t21.5 -135v-567q0 -36 -17.5 -62.5t-42.5 -39.5t-53 -13t-51 18l-107 86q-6 5 -13 6q-7 0 -13 -6l-98 -86q-23 -14 -38.5 -13t-31.5 13l-121 90l69 42 l78 -58q11 -10 23 0l99 86q10 5 18 8t15.5 3t15.5 -2.5t18 -8.5l115 -88q8 -6 16 -7t15 2t11.5 11t4.5 19v553q0 70 -17 118.5t-49.5 79t-80.5 44.5t-109 14q-36 0 -71.5 -6t-69.5 -22t-64 -43q-32 -27 -56 -71l64 -94v-336q0 -42 -9 -72.5t-23.5 -51.5t-33 -33.5 t-38.5 -19.5t-39 -9t-35 -2zM670 -318q0 14 5 26.5t14.5 22t22 14.5t26.5 5t26 -5t21 -14.5t14.5 -22t5.5 -26.5t-5.5 -26t-14.5 -21t-21 -15q-12 -5 -26 -5t-26.5 5.5t-22 14.5t-14.5 21t-5 26z" />
<glyph unicode="&#xe0e;&#xe38;" horiz-adv-x="925" d="M68 78q40 -2 61 10.5t30 32.5t10 43.5t1 44.5v303l-76 108q63 108 152.5 162t212.5 54q86 0 150 -21t106.5 -62t64 -100t21.5 -135v-534q0 -31 -9.5 -54.5t-22.5 -39.5t-25.5 -25t-18.5 -13q-18 -9 -42.5 -9.5t-45.5 9.5l-189 90q-11 5 -18.5 5.5t-17.5 -5.5l-197 -102 l-43 56l224 114q10 6 18 8t16 2t16 -3t19 -7l205 -92q8 -2 16 1t14 10t9 15.5t3 18.5v541q0 70 -17 118.5t-49 79t-80 44.5t-110 14q-36 0 -71 -6t-69 -22t-64 -43q-32 -27 -56 -71l64 -94v-336q0 -42 -9 -72.5t-23.5 -51.5t-33 -33.5t-38.5 -19.5t-39 -9t-35 -2zM628 -238 h38q38 0 64 -5t42.5 -21t23.5 -44.5t7 -74.5v-113h-88v111q0 24 -3 38t-10 21.5t-18.5 9.5t-27.5 2h-28v76z" />
<glyph unicode="&#xe0f;&#xe38;" horiz-adv-x="925" d="M70 76q40 -2 61 10.5t30 32.5t10 43.5t1 44.5v305l-76 108q62 108 152 162t213 54q86 0 150 -21t106.5 -62t64 -100t21.5 -135v-528q0 -18 -5 -36.5t-15.5 -36t-27.5 -33.5t-40 -30q-12 -6 -21.5 -9t-18.5 -3t-17.5 3t-18.5 9l-107 86q-6 5 -13 6q-7 0 -13 -6l-98 -86 q-23 -14 -38.5 -13t-31.5 13l-121 90l69 42l78 -58q11 -10 23 0l99 86q10 5 18 8t15.5 3t15.5 -2.5t18 -8.5l115 -88q10 0 18.5 5t15 13t10 17t3.5 19v524q0 70 -17 118.5t-49.5 79t-80.5 44.5t-109 14q-36 0 -71.5 -6t-69.5 -22t-64 -43q-32 -27 -56 -71l64 -94v-336 q0 -42 -9 -72.5t-23.5 -51.5t-33 -33.5t-38.5 -19.5t-39 -9t-35 -2zM628 -238h38q38 0 64 -5t42.5 -21t23.5 -44.5t7 -74.5v-113h-88v111q0 24 -3 38t-10 21.5t-18.5 9.5t-27.5 2h-28v76z" />
<glyph unicode="&#xe0e;&#xe39;" horiz-adv-x="925" d="M68 78q40 -2 61 10.5t30 32.5t10 43.5t1 44.5v303l-76 108q63 108 152.5 162t212.5 54q86 0 150 -21t106.5 -62t64 -100t21.5 -135v-534q0 -31 -9.5 -54.5t-22.5 -39.5t-25.5 -25t-18.5 -13q-18 -9 -42.5 -9.5t-45.5 9.5l-189 90q-11 5 -18.5 5.5t-17.5 -5.5l-197 -102 l-43 56l224 114q10 6 18 8t16 2t16 -3t19 -7l205 -92q8 -2 16 1t14 10t9 15.5t3 18.5v541q0 70 -17 118.5t-49 79t-80 44.5t-110 14q-36 0 -71 -6t-69 -22t-64 -43q-32 -27 -56 -71l64 -94v-336q0 -42 -9 -72.5t-23.5 -51.5t-33 -33.5t-38.5 -19.5t-39 -9t-35 -2zM422 -236 h51q29 0 48.5 -5.5t31 -18t16.5 -32.5t5 -48v-10q0 -12 3 -24.5t11.5 -23t22 -17.5t34.5 -7q22 0 35.5 7t21.5 17.5t10.5 23t2.5 24.5v114h86v-114q0 -32 -11.5 -58.5t-32.5 -45.5t-50 -29.5t-62 -10.5q-36 0 -64.5 10.5t-49 29.5t-31 45.5t-10.5 58.5q0 24 -9 32.5t-31 8.5 h-26z" />
<glyph unicode="&#xe0f;&#xe39;" horiz-adv-x="925" d="M70 76q40 -2 61 10.5t30 32.5t10 43.5t1 44.5v305l-76 108q62 108 152 162t213 54q86 0 150 -21t106.5 -62t64 -100t21.5 -135v-528q0 -18 -5 -36.5t-15.5 -36t-27.5 -33.5t-40 -30q-12 -6 -21.5 -9t-18.5 -3t-17.5 3t-18.5 9l-107 86q-6 5 -13 6q-7 0 -13 -6l-98 -86 q-23 -14 -38.5 -13t-31.5 13l-121 90l69 42l78 -58q11 -10 23 0l99 86q10 5 18 8t15.5 3t15.5 -2.5t18 -8.5l115 -88q10 0 18.5 5t15 13t10 17t3.5 19v524q0 70 -17 118.5t-49.5 79t-80.5 44.5t-109 14q-36 0 -71.5 -6t-69.5 -22t-64 -43q-32 -27 -56 -71l64 -94v-336 q0 -42 -9 -72.5t-23.5 -51.5t-33 -33.5t-38.5 -19.5t-39 -9t-35 -2zM422 -236h51q29 0 48.5 -5.5t31 -18t16.5 -32.5t5 -48v-10q0 -12 3 -24.5t11.5 -23t22 -17.5t34.5 -7q22 0 35.5 7t21.5 17.5t10.5 23t2.5 24.5v114h86v-114q0 -32 -11.5 -58.5t-32.5 -45.5t-50 -29.5 t-62 -10.5q-36 0 -64.5 10.5t-49 29.5t-31 45.5t-10.5 58.5q0 24 -9 32.5t-31 8.5h-26z" />
<glyph unicode="&#xd;" horiz-adv-x="485" />
<glyph unicode=" "  horiz-adv-x="428" />
<glyph unicode="&#x09;" horiz-adv-x="428" />
<glyph unicode="&#xa0;" horiz-adv-x="428" />
<glyph unicode="!" horiz-adv-x="491" d="M205 58q0 14 4.5 25t13.5 20t20 13.5t25 4.5t26 -4.5t20 -13.5t13 -21q5 -10 5 -24t-5 -26t-13 -20t-20 -13t-26 -5q-28 0 -45.5 18t-17.5 46zM223 1034h91l-7 -725h-77z" />
<glyph unicode="&#x22;" horiz-adv-x="657" d="M152 792v250h102v-250h-102zM402 792v250h102v-250h-102z" />
<glyph unicode="#" horiz-adv-x="997" d="M133 350v68h158l35 219h-148v71h158l57 334h82l-55 -334h264l54 334h79l-53 -334h141v-71h-151q-9 -56 -19.5 -109.5t-17.5 -109.5h145v-68h-158l-57 -352h-84l61 352h-264l-55 -352h-82l57 352h-147zM368 414h269l39 227h-272z" />
<glyph unicode="$" horiz-adv-x="844" d="M47 131l63 59q32 -31 63 -52.5t63.5 -36.5t67 -23t73.5 -10v428l-21 2q-62 6 -114 25t-89.5 52t-58 81t-20.5 110t22 112t62 87t96 59t123 28v130h71v-130q43 -2 80.5 -10t71.5 -21.5t66 -33.5t63 -47l-57 -56q-23 20 -46.5 37t-50.5 30t-58 21t-69 11v-422l44 -6 q68 -10 120 -29t88 -51.5t56 -80t26 -112.5q0 -63 -24 -113.5t-67.5 -88.5t-105 -61t-137.5 -29v-158h-71v158q-52 2 -96.5 12t-84.5 28t-76.5 43t-72.5 58zM158 770q0 -50 17 -85t47 -57.5t70 -36t85 -19.5v411q-51 -6 -91.5 -23t-69 -44.5t-43.5 -64.5t-15 -81zM448 68 q56 4 101.5 20t78 43t50.5 64t18 83q2 30 -5.5 56t-23 47t-36.5 38t-45 29t-51 20t-53 11l-34 5v-416z" />
<glyph unicode="%" horiz-adv-x="1212" d="M80 692v158q0 44 14 81t40.5 63t63.5 40q36 14 82 14q44 0 82 -14t65 -40t42 -63t15 -81v-158q0 -42 -15 -78t-42 -62t-65 -40t-82 -14q-46 0 -82.5 14t-63 40t-40.5 62t-14 78zM150 696q0 -32 7 -58t23 -44t41 -27.5t59 -9.5t59 10t41 28.5t24 44.5q8 24 8 56v154 q0 30 -8 55.5t-24 43.5t-40 28q-26 10 -60 10t-59 -10t-41 -28t-23 -43.5t-7 -55.5v-154zM322 0l504 1034h73l-506 -1034h-71zM729 188v156q0 44 14.5 81t41.5 63t64 40t83 14q45 0 82.5 -14t64.5 -40t42 -63t15 -81v-156q0 -44 -15 -81t-42 -63.5t-64.5 -41t-82.5 -14.5 q-46 0 -83 14.5t-64 41t-41.5 63.5t-14.5 81zM801 190q0 -32 7.5 -57.5t23.5 -44t41 -29t59 -10.5q35 0 60.5 10.5t41.5 29.5t23.5 45t7.5 56v150q0 32 -7.5 58.5t-23.5 45.5t-41.5 29.5t-60.5 10.5q-34 0 -59 -10t-41 -29t-23.5 -45.5t-7.5 -59.5v-150z" />
<glyph unicode="&#x26;" horiz-adv-x="1093" d="M100 289q0 62 21 109t56 85t79.5 69.5t91.5 61.5q-20 24 -41.5 50.5t-38.5 55.5t-27.5 60.5t-10.5 65.5q0 44 17 82t47 66t71 44t87 16q47 0 88 -16t71.5 -44t47.5 -67t17 -83q0 -32 -9 -58t-24 -47t-35 -39t-43 -34.5t-48 -32t-48 -31.5l311 -356q16 26 28 51t19 54 t11 65t4 86h84q0 -98 -21 -178t-71 -140q18 -22 38 -45t40 -47t40 -47t37 -45h-111l-104 119q-18 -14 -48 -36.5t-72 -42.5t-96 -35t-118 -15q-76 0 -138.5 21.5t-107 61t-69.5 94.5t-25 122zM188 293q0 -52 18.5 -93.5t51.5 -71.5t79 -46q45 -16 101 -16q32 0 66 5t69.5 17 t73 34t78.5 56l-325 379q-38 -24 -76 -50t-68 -56.5t-49 -69t-19 -88.5zM316 850q0 -20 5.5 -38.5t18 -41t32.5 -49.5t50 -61q24 17 53 34.5t54 38.5t43 48t20 63q0 28 -11 53t-30 44t-45 29q-26 11 -54 11q-29 0 -53.5 -10.5t-43.5 -27.5t-29 -41t-10 -52z" />
<glyph unicode="'" horiz-adv-x="407" d="M152 792v250h102v-250h-102z" />
<glyph unicode="(" horiz-adv-x="456" d="M156 127v893q0 20 1 38.5t5 37t10 37.5t16 39q8 18 19 33t23.5 30t28.5 30t36 33l53 -55q-13 -14 -25.5 -26.5t-23.5 -25t-21 -25.5q-9 -14 -16 -28q-12 -26 -17 -58t-5 -70v-873q0 -38 5 -69.5t17 -57.5q7 -15 16.5 -28.5t20.5 -26.5t23.5 -25t25.5 -26l-53 -56 q-20 19 -36 34.5t-28.5 30.5t-22.5 30q-12 15 -20 35q-20 37 -26 74.5t-6 74.5z" />
<glyph unicode=")" horiz-adv-x="456" d="M104 -92q28 28 50 52q22 22 36 52q14 26 18.5 57t4.5 68v873q0 38 -4.5 69t-18.5 57q-14 28 -36 52t-50 51l62 59q18 -18 32.5 -33t27.5 -30t24.5 -30t21.5 -33q10 -20 16 -39t9 -37.5t3.5 -37t0.5 -38.5v-893q0 -18 -0.5 -37t-3.5 -37.5t-9 -37.5t-16 -37 q-11 -19 -22 -34.5t-24 -30.5t-27.5 -30t-32.5 -35z" />
<glyph unicode="*" horiz-adv-x="753" d="M116 670l198 110l-198 109l36 61l192 -116l-4 227h72l-4 -227l192 116l35 -61l-197 -109l197 -110l-35 -60l-192 117l4 -227h-72l4 227l-192 -117z" />
<glyph unicode="+" horiz-adv-x="848" d="M94 387v76h293v291h78v-291h289v-76h-289v-291h-78v291h-293z" />
<glyph unicode="," horiz-adv-x="415" d="M152 110h110v-220l-110 -109v329z" />
<glyph unicode="-" horiz-adv-x="688" d="M133 387v76h422v-76h-422z" />
<glyph unicode="." horiz-adv-x="426" d="M144 60q0 14 5 26.5t14 21.5t21.5 14t26.5 5t26.5 -5t21.5 -14t14 -21.5t5 -26.5t-5 -27t-14 -22t-21 -14t-27 -5q-14 0 -26.5 5t-21.5 14t-14 22t-5 27z" />
<glyph unicode="/" horiz-adv-x="545" d="M0 -119l459 1387h86l-461 -1387h-84z" />
<glyph unicode="0" horiz-adv-x="747" d="M84 270v500q0 60 21 110.5t59 86.5t90 55.5t116 19.5t118 -19.5t93 -55.5t61 -86.5t22 -110.5v-500q0 -61 -22 -111.5t-61 -87.5t-93 -58t-118 -21t-116 21t-90 58t-59 88t-21 111zM166 274q0 -43 13 -81.5t39 -68.5t64 -47t88 -17q52 0 91 17t65.5 47t40 69t13.5 81v488 q0 45 -13.5 84.5t-40 68.5t-65.5 45.5t-91 16.5q-50 0 -88 -16.5t-64 -45.5t-39 -68.5t-13 -84.5v-488z" />
<glyph unicode="1" horiz-adv-x="747" d="M184 778v94l199 162h84v-1034h-84v946z" />
<glyph unicode="2" horiz-adv-x="747" d="M88 0v70l440 540q30 40 45 78t15 82q0 46 -14 84t-41 65t-66 41.5t-88 14.5q-42 0 -79.5 -12t-66.5 -37t-46 -64.5t-17 -93.5h-82q0 59 20 109.5t57 87t91 57t123 20.5q66 0 120.5 -19t92.5 -54t59 -85.5t21 -113.5q0 -30 -5 -55t-14 -49t-24 -48q-15 -22 -35 -48 l-408 -500h486v-70h-584z" />
<glyph unicode="3" horiz-adv-x="747" d="M37 254h84q4 -53 25 -90.5t53 -61t72 -34.5q39 -10 81 -10q48 0 90 15t73 43t49 68t18 90q0 52 -14 93t-42.5 70t-73.5 44t-108 15h-18v69h18q112 0 165.5 53t53.5 150q0 52 -16.5 91t-45.5 65t-68 39.5t-83 13.5q-48 0 -85.5 -13.5t-65 -38.5t-43.5 -60t-21 -79h-86 q8 62 33.5 110t65 80t91 49t111.5 17q66 0 120 -19t92 -54t58.5 -86t20.5 -115q0 -40 -8 -75.5t-25.5 -65t-45.5 -53.5t-68 -40q88 -30 130 -96t42 -164q0 -70 -24 -123t-66 -90t-100 -55t-124 -18t-121 16t-97 49t-67 83t-30 118z" />
<glyph unicode="4" horiz-adv-x="747" d="M39 170v66l405 798h88l-403 -796h344v327h84v-327h147v-68h-147v-170h-84v170h-434z" />
<glyph unicode="5" horiz-adv-x="747" d="M92 232h82q6 -40 20 -73t39 -55t61 -34t83 -12q22 0 43 3.5t41 10.5t37.5 17.5t29.5 22.5q24 23 37 50.5t20 57t8 60t1 58.5q0 32 -3 64.5t-11 63t-22 57.5t-36 47t-54.5 31t-76.5 11q-37 0 -69 -7t-58 -21t-44 -34t-26 -46h-73v530h528v-68h-455v-356q36 36 86 53 q52 17 120 17q60 0 106 -16q48 -16 80 -44q29 -28 46.5 -61.5t27.5 -71t13 -75.5t3 -74q0 -37 -2 -73.5t-11 -72t-26 -68t-47 -60.5q-38 -36 -90 -56t-123 -20q-68 0 -123 18q-54 20 -90 52q-31 30 -49.5 72t-22.5 102z" />
<glyph unicode="6" horiz-adv-x="747" d="M68 297q0 27 3 53t10 53.5t19 57t31 63.5l271 510h86l-238 -442q26 8 60.5 14t68.5 6q72 0 127.5 -23t94.5 -65t59 -98t20 -121q0 -66 -21 -123t-60 -99.5t-96 -67.5t-131 -25q-73 0 -129.5 23t-95.5 64t-59 97t-20 123zM152 301q0 -52 15 -96.5t44 -77.5t70 -51t91 -18 q51 0 92 18t70 51t44.5 77.5t15.5 96.5q0 48 -13.5 91.5t-40.5 76.5t-67.5 52t-95.5 19q-51 0 -92.5 -17t-71 -48t-45.5 -75t-16 -99z" />
<glyph unicode="7" horiz-adv-x="747" d="M110 805v229h580v-66l-389 -968h-86l387 966h-410v-161h-82z" />
<glyph unicode="8" horiz-adv-x="747" d="M58 280q0 46 12.5 85t35 71.5t54.5 58t70 43.5q-72 40 -110 97t-38 139q0 58 21 107.5t59 85t91 55.5t117 20q66 0 120 -20t93 -55.5t61 -85t22 -107.5q0 -78 -39 -137t-109 -99q39 -18 70.5 -43.5t53.5 -58t34 -71.5t12 -85q0 -62 -24 -115t-66 -91t-100 -60 q-60 -22 -128 -22q-66 0 -123 22t-99 60t-66 91t-24 115zM142 284q0 -45 17.5 -85t48 -70.5t72.5 -47.5t90 -17q50 0 93 17t74 47.5t49 70.5t18 85q0 47 -18 87.5t-49 70.5t-74 47t-93 17q-48 0 -90 -17t-72.5 -47t-48 -70t-17.5 -88zM164 774q0 -44 15 -81t42 -63.5t65 -41 t84 -14.5q48 0 87 14.5t67 41t43 63.5t15 81t-15 81t-43 64t-67 42.5t-87 15.5q-46 0 -84 -15.5t-65 -42.5t-42 -64t-15 -81z" />
<glyph unicode="9" horiz-adv-x="747" d="M68 727q0 66 20 123.5t59 100.5t96 67t129 24q74 0 131.5 -23t97 -63t59.5 -96t20 -122q0 -27 -3 -53.5t-11 -54.5t-20 -57.5t-30 -62.5l-272 -510h-84l238 442q-26 -8 -61 -14t-69 -6q-72 0 -127.5 23.5t-94 64.5t-58.5 97t-20 120zM152 733q0 -48 13.5 -91.5t41 -76.5 t68.5 -52t95 -19q51 0 92.5 17t70.5 48t45 75t16 99q0 52 -15 96.5t-44 77.5t-70 51.5t-93 18.5q-50 0 -90.5 -18.5t-69.5 -51.5t-44.5 -77.5t-15.5 -96.5z" />
<glyph unicode=":" horiz-adv-x="471" d="M190 60q0 14 5 26.5t14 21.5t22 14t27 5t27 -5t22 -14t14 -21.5t5 -26.5t-5 -27t-14 -22t-22 -14t-27 -5t-27 5t-22 14t-14 22t-5 27zM190 600q0 14 5 27t14 22t22 14t27 5t27 -5t22 -14t14 -22t5 -27t-5 -27t-14 -22t-22 -14t-27 -5t-27 5t-22 14t-14 22t-5 27z" />
<glyph unicode=";" horiz-adv-x="471" d="M190 600q0 14 5 27t14 22t22 14t27 5t27 -5t22 -14t14 -22t5 -27t-5 -27t-14 -22t-22 -14t-27 -5t-27 5t-22 14t-14 22t-5 27zM203 110h109v-222l-109 -107v329z" />
<glyph unicode="&#x3c;" horiz-adv-x="846" d="M94 434v76l660 256v-84l-562 -209l562 -209v-84z" />
<glyph unicode="=" horiz-adv-x="848" d="M94 262v76h660v-76h-660zM94 510v76h660v-76h-660z" />
<glyph unicode="&#x3e;" horiz-adv-x="846" d="M94 180v84l562 209l-562 209v84l660 -256v-76z" />
<glyph unicode="?" horiz-adv-x="725" d="M96 792q0 54 20 102t56.5 83.5t87 56t110.5 20.5t111 -19t88 -54t57.5 -83t20.5 -104q0 -26 -5.5 -48t-14.5 -43.5t-21 -42t-26 -40.5q-31 -45 -64.5 -92.5t-65.5 -93.5q-8 -9 -13 -20.5t-8 -22.5t-4 -21t-1 -18v-72h-84v68q0 21 3 38t9 32.5t14 30.5t19 33l127 180 q10 16 20 31.5t17 31.5t11.5 33.5t4.5 35.5q0 40 -14.5 75t-40.5 60t-62 39.5t-78 14.5q-43 0 -78.5 -15.5t-60.5 -41.5t-39 -60q-14 -36 -14 -74h-82zM318 58q0 14 4.5 25t13 20t20 13.5t25.5 4.5t25.5 -4.5t20 -13.5t13.5 -21q4 -10 4 -24q0 -28 -17.5 -46t-45.5 -18 t-45.5 18t-17.5 46z" />
<glyph unicode="@" horiz-adv-x="1288" d="M98 524q4 76 26 147.5t59.5 133t88.5 111.5t112.5 86t131.5 56q72 19 148 19q79 0 149.5 -18t130.5 -51.5t107 -80.5t80 -106.5t50 -129t15 -146.5q-2 -70 -22 -131.5t-56 -106.5t-89 -71.5t-121 -26.5q-30 0 -54 7.5t-41 20t-28 30t-15 38.5q-27 -31 -53 -50t-52 -29 t-52 -13.5t-52 -3.5q-56 0 -94.5 18.5t-62.5 50.5t-35 74t-11 90q0 20 3 41t5 41q12 66 35.5 124.5t60 101t87.5 67.5t119 25q26 0 49 -4t44 -13t39 -25t34 -40l14 68h74l-74 -420q-12 -74 6 -107t62 -33q32 0 59 12t49 32t40 46.5t30 57t19 63.5t7 66q2 64 -12 123.5 t-42 111t-69 93.5t-93 72t-112 47q-60 16 -128 16q-63 0 -122.5 -16t-112.5 -45t-97.5 -72t-78 -96.5t-53.5 -117.5q-20 -65 -24 -137q-3 -67 11.5 -128.5t43.5 -115t71 -97t94 -75t113 -48.5t128 -17q40 0 82 7t81.5 20.5t76.5 33.5t69 44l48 -62q-74 -54 -166 -84 t-191 -30q-76 0 -146.5 18t-131.5 52t-110.5 83.5t-84 111t-51.5 133.5t-15 154zM438 426q0 -32 7 -61t22.5 -50t42 -34t66.5 -13q38 0 67 11t51 29t38.5 42.5t28.5 53t19.5 59t13.5 61.5q5 28 9 53t4 51q0 32 -6.5 61t-22.5 50t-43 33t-67 12q-35 0 -63.5 -11t-51 -30 t-40 -44t-30 -54t-21 -60t-14.5 -61q-4 -25 -7 -50t-3 -48z" />
<glyph unicode="A" horiz-adv-x="882" d="M4 0l400 1034h75l399 -1034h-90l-94 250h-504l-94 -250h-92zM217 324h451l-226 594z" />
<glyph unicode="B" horiz-adv-x="958" d="M144 0v1034h384q68 0 126 -18t100 -52.5t66 -85t24 -114.5q0 -40 -11 -76.5t-32 -67t-52 -53.5t-71 -37q42 -14 75.5 -38t57 -55.5t35.5 -71t12 -83.5q0 -70 -23 -122.5t-65 -88t-101 -53.5t-131 -18h-394zM232 74h296q56 0 102 14t78 41t49 66t17 87t-17 87t-49 66 t-78 42t-102 15h-296v-418zM232 565h284q49 0 92.5 11.5t76.5 35.5t52 62t19 90q0 53 -19 90.5t-52 61.5t-76.5 35t-92.5 11h-284v-397z" />
<glyph unicode="C" horiz-adv-x="899" d="M102 518q0 59 1 106.5t4 86.5t8.5 71t16 59t26.5 51q16 23 40 46q51 52 118.5 79t142.5 27q69 0 128 -20.5t105 -60t76 -95.5t43 -128h-84q-10 54 -34.5 96.5t-59 72.5t-79 46t-95.5 16q-54 0 -104 -19.5t-89 -58.5q-19 -19 -32.5 -39t-22.5 -43t-14 -51.5t-8 -64t-4 -79 t-1 -98.5t1 -98.5t4 -79t8 -63.5t14 -51.5t22.5 -43.5t32.5 -38q39 -39 88.5 -59.5t104.5 -20.5q52 0 96.5 16t79.5 47t60 74t36 96h78l2 -2q-12 -70 -43.5 -126.5t-77 -96.5t-104.5 -61t-127 -21q-74 0 -141 28q-68 26 -120 78q-24 24 -40 48t-26.5 51t-16 59t-8.5 71 t-4 86.5t-1 106.5z" />
<glyph unicode="D" horiz-adv-x="989" d="M144 0v1034h368q82 0 141 -19t101 -52.5t68.5 -80.5t41 -102.5t20 -119.5t5.5 -130q0 -68 -4.5 -133t-18.5 -124t-39 -109t-67 -86.5t-103 -57t-145 -20.5h-368zM232 74h262q70 0 120.5 17.5t85 49t54.5 74.5t31 94t14.5 107t3.5 114q0 57 -4.5 111.5t-16 102.5t-33 88 t-55.5 69t-84 45q-48 16 -116 16h-262v-888z" />
<glyph unicode="E" horiz-adv-x="862" d="M144 0v1034h663v-72h-575v-401h489v-73h-489v-414h575v-74h-663z" />
<glyph unicode="F" horiz-adv-x="811" d="M144 0v1034h642v-72h-554v-420h470v-77h-470v-465h-88z" />
<glyph unicode="G" horiz-adv-x="909" d="M98 518q0 59 1 106.5t4 86.5t8.5 71t16 59t26.5 51q16 23 40 46q51 52 118.5 79t141.5 27q68 0 128 -21.5t106 -61.5t77 -96.5t44 -124.5h-82q-12 54 -36.5 96.5t-59.5 72.5t-80 46t-97 16q-26 0 -52 -5.5t-52.5 -17t-51 -28t-46.5 -38.5q-23 -26 -37.5 -57.5t-22 -74 t-10 -99.5t-2.5 -133q0 -55 1 -98.5t4 -79t8 -63.5t14 -51.5t22.5 -43.5t32.5 -38q39 -39 88.5 -59.5t103.5 -20.5q28 0 58 7t57.5 20t52 32t44.5 41q17 22 29 44t20 47t12 53t4 60v91h-279v71h361v-170q0 -80 -21.5 -141t-64.5 -109q-26 -27 -56.5 -48.5t-65.5 -37.5 t-73 -25t-78 -9q-74 0 -141 28q-67 26 -119 78q-24 24 -40 48t-26.5 51t-16 59t-8.5 71t-4 86.5t-1 106.5z" />
<glyph unicode="H" horiz-adv-x="1022" d="M144 0v1034h88v-473h560v473h86v-1034h-86v488h-560v-488h-88z" />
<glyph unicode="I" horiz-adv-x="395" d="M154 0v1034h86v-1034h-86z" />
<glyph unicode="J" horiz-adv-x="704" d="M10 86l60 58q16 -16 33 -30t38 -24.5t47 -16t62 -5.5q58 0 102.5 17.5t75 52t46.5 84.5t16 114v698h86v-714q0 -75 -23 -136.5t-65 -104.5t-102.5 -66t-135.5 -23q-38 0 -71 6t-62 18t-56 30t-51 42z" />
<glyph unicode="K" horiz-adv-x="936" d="M144 0v1034h88v-638l546 638h104l-335 -397l393 -637h-104l-346 578l-258 -298v-280h-88z" />
<glyph unicode="L" horiz-adv-x="803" d="M144 0v1034h88v-956h554v-78h-642z" />
<glyph unicode="M" horiz-adv-x="1161" d="M144 0v1034h79l363 -802l352 802h78v-1034h-86v770l6 114l-26 -94l-286 -638h-84l-290 646l-24 89l4 -117v-770h-86z" />
<glyph unicode="N" horiz-adv-x="1046" d="M144 0v1034h79l594 -892v892h86v-1034h-79l-594 893v-893h-86z" />
<glyph unicode="O" horiz-adv-x="913" d="M100 518q0 59 1 106.5t4 86.5t8.5 71t16 59t26.5 51q16 23 40 46q51 52 118.5 79t141.5 27q76 0 143 -27t118 -79q24 -23 40 -46.5t26.5 -50.5t16.5 -59t9 -71t3.5 -86.5t0.5 -106.5t-0.5 -106.5t-3.5 -86.5t-9 -71t-16.5 -59t-27 -51t-39.5 -48q-52 -52 -118.5 -79 t-142.5 -27q-74 0 -141 28q-67 26 -119 78q-24 24 -40 48t-26.5 51t-16 59t-8.5 71t-4 86.5t-1 106.5zM182 518q0 -55 1 -98.5t4 -79t8 -63.5t14 -51.5t22.5 -43.5t32.5 -38q39 -39 88.5 -59.5t103.5 -20.5t104 20q52 20 92 60q18 19 31 38.5t22 43t14 51.5t8 63.5t3.5 79 t0.5 98.5t-0.5 98.5t-3.5 79t-8 64t-14 51.5t-22 43t-31 39q-40 38 -90 58q-52 20 -106 20t-103.5 -19.5t-88.5 -58.5q-19 -19 -32.5 -39t-22.5 -43t-14 -51.5t-8 -64t-4 -79t-1 -98.5z" />
<glyph unicode="P" horiz-adv-x="895" d="M144 0v1034h382q72 0 132 -19t103.5 -57t68 -94t24.5 -129q0 -70 -24.5 -125.5t-68 -93.5t-103.5 -58t-132 -20h-294v-438h-88zM232 510h284q54 0 100.5 14t80 42t52.5 70.5t19 98.5q0 58 -19 100.5t-52.5 70.5t-80 42t-100.5 14h-284v-452z" />
<glyph unicode="Q" horiz-adv-x="913" d="M100 518q0 59 1 106.5t4 86.5t8.5 71t16 59t26.5 51q16 23 40 46q51 52 118.5 79t141.5 27q76 0 143 -27t118 -79q24 -23 40 -46.5t26.5 -50.5t16.5 -59t9 -71t3.5 -86.5t0.5 -106.5q0 -73 -1.5 -130t-7.5 -102t-18 -80.5t-32 -63.5l147 -140l-59 -55l-142 133 q-50 -44 -112 -67q-64 -23 -132 -23q-74 0 -141 28q-67 26 -119 78q-24 24 -40 48t-26.5 51t-16 59t-8.5 71t-4 86.5t-1 106.5zM182 518q0 -55 1 -98.5t4 -79t8 -63.5t14 -51.5t22.5 -43.5t32.5 -38q39 -39 88.5 -59.5t103.5 -20.5q52 0 100 18t85 53l-139 135l59 56 l131 -128q13 24 20.5 53t11.5 67t5.5 87t1.5 113q0 55 -0.5 98.5t-3.5 79t-8 64t-14 51.5t-22 43t-31 39q-40 38 -90 58q-52 20 -106 20t-103.5 -19.5t-88.5 -58.5q-19 -19 -32.5 -39t-22.5 -43t-14 -51.5t-8 -64t-4 -79t-1 -98.5z" />
<glyph unicode="R" horiz-adv-x="956" d="M144 0v1034h417q67 0 124 -18t99 -53t65 -86t23 -119q0 -56 -18 -103t-51 -83.5t-79 -61t-102 -35.5q65 -118 133.5 -237.5t131.5 -237.5h-103l-256 473h-296v-473h-88zM232 549h317q52 0 95 12.5t74.5 38.5t48.5 65t17 91t-17 90t-48.5 64t-75 39t-94.5 13h-317v-413z " />
<glyph unicode="S" horiz-adv-x="807" d="M47 129l61 61q36 -37 68.5 -60.5t67 -37.5t72.5 -19t84 -5q60 0 108.5 14t82.5 40t52.5 65t18.5 87t-15 82.5t-41.5 58t-63 37.5t-81.5 21l-121 19q-59 10 -108.5 30t-85 52t-55 78t-19.5 108q0 65 22 117.5t64 89t102 56t136 19.5q48 0 88 -6t75.5 -20t68 -35t66.5 -51 l-53 -54q-24 22 -49.5 40t-55 30.5t-65.5 19.5t-82 7q-56 0 -99.5 -14.5t-73.5 -42.5t-46 -67t-16 -87q0 -44 16 -77t44 -56t66 -38q36 -15 78 -23l109 -17q60 -10 111 -30.5t88.5 -53t58.5 -79.5t21 -110q0 -66 -24.5 -118.5t-69.5 -90.5t-109.5 -58.5t-144.5 -20.5 q-60 0 -108 8t-90 25t-79 43.5t-74 62.5z" />
<glyph unicode="T" horiz-adv-x="764" d="M14 960v74h736v-74h-326v-960h-88v960h-322z" />
<glyph unicode="U" horiz-adv-x="971" d="M129 358v676h86v-664q0 -67 17.5 -122.5t52.5 -95.5t85 -62t116 -22q64 0 114 22t84 62t52 96t18 122v664h88v-676q0 -79 -25 -146.5t-71 -116.5t-112 -77t-148 -28q-83 0 -149.5 28t-112.5 77t-70.5 117t-24.5 146z" />
<glyph unicode="V" horiz-adv-x="880" d="M47 1034h88l305 -892l306 892h90l-359 -1034h-75z" />
<glyph unicode="W" horiz-adv-x="1315" d="M45 1034h86l229 -897l254 897h84l254 -897l228 897h90l-270 -1034h-88l-254 897l-256 -897h-86z" />
<glyph unicode="X" horiz-adv-x="794" d="M14 0l332 528l-309 506h98l261 -430l262 430h96l-308 -506q82 -130 167 -263t167 -265h-102l-282 454l-286 -454h-96z" />
<glyph unicode="Y" horiz-adv-x="817" d="M45 1034h92l277 -520l270 520h90l-322 -604v-430h-86v430z" />
<glyph unicode="Z" horiz-adv-x="841" d="M88 0v88l572 874h-550v72h644v-72l-578 -888h578v-74h-666z" />
<glyph unicode="[" horiz-adv-x="467" d="M156 -119v1387h240v-74h-156v-1241h156v-72h-240z" />
<glyph unicode="\" horiz-adv-x="545" d="M0 1268h84l461 -1387h-86z" />
<glyph unicode="]" horiz-adv-x="467" d="M74 -51h160v1251h-160v68h238v-1387h-238v68z" />
<glyph unicode="^" horiz-adv-x="829" d="M121 565l256 477h75l254 -477h-82l-210 391l-207 -391h-86z" />
<glyph unicode="_" horiz-adv-x="829" d="M0 -196h830v-62h-830v62z" />
<glyph unicode="`" horiz-adv-x="807" d="M213 1073h109l155 -237h-92z" />
<glyph unicode="a" horiz-adv-x="780" d="M58 211q0 54 18 96.5t53 71.5t85 44q52 15 116 15h250v92q0 44 -12 79t-38.5 58t-68 35.5t-101.5 12.5q-40 0 -71 -5.5t-57 -17.5t-49.5 -31t-47.5 -45l-59 54q27 28 54.5 49t61.5 36t75 23t93 8q76 0 133 -17t94.5 -49t56 -80t18.5 -110v-530h-82v78q-26 -24 -51 -41 t-52.5 -27.5t-60 -15t-74.5 -4.5q-62 0 -114 11.5t-90 37.5t-59 68.5t-21 103.5zM140 213q0 -76 49 -113.5t153 -37.5q27 0 53 2t50.5 8t46.5 18t42 31q23 22 34.5 58.5t11.5 92.5v96h-244q-196 0 -196 -155z" />
<glyph unicode="b" horiz-adv-x="825" d="M123 0v1128h84v-452q26 34 53.5 55t56.5 34t61 17t64 4q60 0 106 -15.5t80 -43t57 -65.5t37 -82t20 -93.5t6 -99.5t-6 -98.5t-20.5 -92.5t-37.5 -82t-57 -65.5t-79.5 -43t-105.5 -15.5q-33 0 -64.5 4.5t-60.5 17t-57 33.5t-53 55v-100h-84zM207 387q0 -40 3 -79.5 t11.5 -75.5t24 -67t40 -54t60.5 -36t84 -13q49 0 85.5 13t61.5 36t41 54t25.5 67t13 75.5t3.5 79.5t-3.5 80.5t-13 76.5t-25.5 67.5t-41 54.5t-61.5 36t-85.5 13q-48 0 -84 -13t-60.5 -36t-40 -54.5t-24 -67.5t-11.5 -76t-3 -81z" />
<glyph unicode="c" horiz-adv-x="721" d="M78 387q0 93 23 167t67 126t107 79t143 27q39 0 71.5 -5t62 -19t58 -37t60.5 -57l-56 -52q-24 28 -47 47t-46 30.5t-48.5 16.5t-54.5 5q-70 0 -119.5 -25.5t-81 -70.5t-45.5 -105t-14 -127t14 -126t45.5 -103.5t81 -70t119.5 -25.5q29 0 54.5 5t48.5 16.5t46 31t47 47.5 l56 -52q-32 -36 -60.5 -58.5t-58 -36.5t-62 -19.5t-71.5 -5.5q-80 0 -143 28t-107 79.5t-67 125t-23 164.5z" />
<glyph unicode="d" horiz-adv-x="825" d="M80 387q0 50 6 99.5t19.5 93.5t36 82t56.5 65.5t79.5 43t105.5 15.5q33 0 64.5 -4t61 -17t57.5 -34t54 -55v452h82v-1128h-82v100q-26 -34 -54 -55t-57.5 -33.5t-61 -17t-64.5 -4.5q-60 0 -105.5 15.5t-79 43t-56 65.5t-36.5 82t-20 92.5t-6 98.5zM166 387q0 -40 3 -79.5 t12.5 -75.5t26 -67t42 -54t62 -36t86.5 -13q48 0 83.5 13t60 36t40.5 54t24 67t11 75.5t3 79.5t-3 80.5t-11 76.5t-24 67.5t-40.5 54.5t-60 36t-83.5 13q-50 0 -86.5 -13t-62 -36t-42 -54.5t-26 -67.5t-12.5 -76.5t-3 -80.5z" />
<glyph unicode="e" horiz-adv-x="786" d="M82 387q0 94 21 168t61 125.5t98 78.5t131 27q74 0 132.5 -25.5t99.5 -74t62 -119.5t21 -159v-40h-546q0 -73 16 -129.5t48.5 -95.5t80.5 -59t111 -20q35 0 64 5t54.5 17t48.5 30t48 42l63 -48q-30 -30 -59.5 -52t-63 -37.5t-73.5 -23t-88 -7.5q-80 0 -142 26t-104 76 t-63 124t-21 171zM162 436h464v13q0 47 -13 92q-15 51 -45 89t-74 61.5t-101 23.5t-101 -23.5t-74 -62.5t-44 -89q-12 -44 -12 -91v-13z" />
<glyph unicode="f" horiz-adv-x="426" d="M43 717v61h105v146q0 44 11.5 82t35 65t58.5 42t81 15h72v-74h-56q-63 0 -91.5 -33t-28.5 -95v-148h176v-61h-176v-717h-82v717h-105z" />
<glyph unicode="g" horiz-adv-x="825" d="M80 387q0 51 6 101t19 94t35.5 81.5t56 65t79 42.5t105.5 15q34 0 65.5 -4t61.5 -17t58 -34t54 -55v102h82v-823q0 -73 -21 -134.5t-63 -106t-103 -70t-140 -25.5q-46 0 -80.5 6.5t-64.5 19.5t-59 32t-61 47l56 53q24 -20 45 -35.5t45 -26.5t52 -16.5t67 -5.5 q64 0 110.5 20.5t76.5 56.5t44 85t14 106v139q-26 -34 -54 -55t-58 -33.5t-62 -17t-65 -4.5q-60 0 -105 15t-78.5 42.5t-56 65t-36 81.5t-19.5 93t-6 100zM160 387q0 -40 3.5 -79.5t13 -75.5t26 -67t42.5 -54t62.5 -36t85.5 -13q50 0 86 13t61.5 36t41 54t24 67t11.5 75.5 t3 79.5t-3 80.5t-11.5 76.5t-24 67.5t-41 54.5t-62 36t-85.5 13t-85.5 -13t-62.5 -36t-42.5 -54.5t-26 -67.5t-13 -76t-3.5 -81z" />
<glyph unicode="h" horiz-adv-x="835" d="M123 0v1128h84v-448q43 51 99.5 78.5t127.5 27.5q67 0 120.5 -20t90.5 -57t56.5 -91t19.5 -120v-498h-82v482q0 56 -14 99t-41.5 73t-67.5 45.5t-92 15.5q-47 0 -86.5 -17.5t-68.5 -48.5t-45.5 -75t-16.5 -97v-477h-84z" />
<glyph unicode="i" horiz-adv-x="381" d="M127 1075q0 13 4.5 24.5t13 20t20 13.5t23.5 5q13 0 24.5 -5t19.5 -13.5t13 -20t5 -24.5q0 -12 -5 -23.5t-13 -19.5t-19 -13t-25 -5q-13 0 -24 5t-19.5 13t-13 19.5t-4.5 23.5zM148 0v778h84v-778h-84z" />
<glyph unicode="j" horiz-adv-x="381" d="M-24 -299h54q34 0 57.5 8.5t37 24.5t19.5 41t6 57v946h84v-948q0 -46 -12 -82.5t-35 -62t-58 -39.5t-82 -14h-71v69zM131 1075q0 13 4.5 24.5t13 20t20 13.5t23.5 5q13 0 24.5 -5t19.5 -13.5t13 -20t5 -24.5q0 -12 -5 -23.5t-13 -19.5t-19 -13t-25 -5q-13 0 -24 5 t-19.5 13t-13 19.5t-4.5 23.5z" />
<glyph unicode="k" horiz-adv-x="784" d="M123 0v1128h84v-790l385 440h102l-254 -290l314 -488h-102l-269 428l-176 -205v-223h-84z" />
<glyph unicode="l" horiz-adv-x="397" d="M123 203v925h84v-923q0 -33 5.5 -58t19.5 -41t36 -24q24 -8 58 -8h55v-74h-69q-48 0 -83.5 14.5t-59 41t-35 64t-11.5 83.5z" />
<glyph unicode="m" horiz-adv-x="1349" d="M123 0v778h84v-92q43 50 100.5 75t128.5 25q87 0 151 -35.5t101 -105.5q44 70 110 105.5t152 35.5q66 0 119.5 -20t90 -58t56 -91t19.5 -119v-498h-80v482q0 56 -14 99t-41 73t-66.5 45.5t-91.5 15.5q-48 0 -88 -16.5t-70 -45t-46 -68.5q-17 -39 -17 -87v-498h-82v482 q0 56 -14 99t-41.5 73t-67.5 45.5t-92 15.5q-49 0 -89 -16.5t-68.5 -47.5t-44 -74t-15.5 -95v-482h-84z" />
<glyph unicode="n" horiz-adv-x="835" d="M123 0v778h84v-92q85 100 227 100q67 0 120.5 -20t90.5 -57t56.5 -91t19.5 -120v-498h-82v482q0 56 -14 99t-41.5 73t-67.5 45.5t-92 15.5q-48 0 -88 -16.5t-69 -47.5t-44.5 -74t-15.5 -95v-482h-84z" />
<glyph unicode="o" horiz-adv-x="811" d="M80 387q0 50 7 99.5t23 93.5t40.5 82t60.5 65.5t83.5 43t109.5 15.5q61 0 108.5 -15.5t83.5 -43.5t61.5 -66t41 -82.5t23 -93t7.5 -98.5q0 -49 -7.5 -97.5t-23.5 -93t-41 -82t-61.5 -65t-84 -43.5t-107.5 -16t-108 16t-84 43.5t-61 65t-41 82t-23 93t-7 97.5zM160 387 q0 -38 5 -77.5t16 -75.5t30 -67.5t46 -55t63 -36.5t84 -13t84.5 13t63 36t44.5 55t29 68t15.5 75t4.5 78t-4.5 78t-15 76t-28 68.5t-44.5 55t-64 37t-85 13.5t-85 -13.5t-64 -37t-45 -55t-29.5 -68.5t-16 -76t-4.5 -78z" />
<glyph unicode="p" horiz-adv-x="825" d="M123 -350v1128h84v-100q26 34 53.5 55t56.5 33t61 16t64 4q60 0 105.5 -15t79.5 -42.5t57 -65t37.5 -81.5t20.5 -92.5t6 -98.5t-6 -99t-20 -93.5t-37 -82.5t-57 -65t-80 -43t-106 -16q-33 0 -64.5 4.5t-60.5 17t-57 33.5t-53 55v-452h-84zM207 391q0 -40 3 -80.5 t11.5 -76.5t24 -67t40 -54t60.5 -36t84 -13q49 0 85.5 13t61.5 36t41 54t25.5 67t13 76.5t3.5 80.5t-3.5 79.5t-13 76t-25.5 67.5t-41 54t-61.5 36t-85.5 13q-48 0 -84 -13t-60.5 -36t-40 -54t-24 -67.5t-11.5 -76t-3 -79.5z" />
<glyph unicode="q" horiz-adv-x="825" d="M80 391q0 50 6 98.5t20 92.5t36.5 81.5t56 65t79.5 42.5t105 15q33 0 64.5 -4t61 -16t57.5 -33t54 -55v100h82v-1128h-82v452q-26 -34 -54 -55t-57.5 -33.5t-61 -17t-64.5 -4.5q-60 0 -105.5 16t-79.5 43t-56.5 65t-36 82.5t-19.5 93.5t-6 99zM166 391q0 -40 3 -80.5 t12.5 -76.5t26 -67t42 -54t62 -36t86.5 -13q48 0 83.5 13t60 36t40.5 54t24 67t11 76t3 81q0 40 -3 79.5t-11 76t-24 67.5t-40.5 54t-60 36t-83.5 13q-50 0 -86.5 -13t-62 -36t-42 -54t-26 -67.5t-12.5 -76t-3 -79.5z" />
<glyph unicode="r" horiz-adv-x="534" d="M123 0v778h84v-104q16 27 40.5 47.5t53.5 35.5t63 22t68 7q38 0 70 -7t59 -23l-49 -66q-22 12 -45 18.5t-53 6.5q-50 0 -89 -19.5t-65 -52t-39.5 -76t-13.5 -90.5v-477h-84z" />
<glyph unicode="s" horiz-adv-x="690" d="M47 100l55 62q86 -98 236 -98q52 0 92.5 10t68 30t42 49t14.5 68q0 58 -33.5 88.5t-103.5 38.5l-119 14q-106 12 -163.5 63t-57.5 138q0 52 18.5 93.5t52.5 70.5t82.5 44t108.5 15q74 0 141 -20q67 -22 117 -62l-56 -57q-43 32 -93 50t-109 18q-43 0 -76.5 -10.5 t-57.5 -30t-36 -48t-12 -63.5q0 -57 34.5 -89t108.5 -38l119 -10q45 -4 84.5 -15t68.5 -35t45.5 -61.5t16.5 -93.5q0 -54 -20.5 -97t-58.5 -73.5t-92 -46.5t-122 -16q-94 0 -166 28q-73 26 -129 84z" />
<glyph unicode="t" horiz-adv-x="459" d="M37 717v61h107v248h82v-248h174v-61h-174v-514q0 -62 29 -95.5t89 -33.5h56v-74h-68q-47 0 -82.5 15t-59 42t-35 65t-11.5 83v512h-107z" />
<glyph unicode="u" horiz-adv-x="837" d="M112 280v498h84v-481q0 -114 55 -173.5t161 -59.5q48 0 88 16t68.5 47t44 74t15.5 96v481h84v-778h-84v92q-43 -51 -99.5 -75.5t-128.5 -24.5q-66 0 -119.5 20t-91 57.5t-57.5 91t-20 119.5z" />
<glyph unicode="v" horiz-adv-x="745" d="M45 778h92l235 -680l236 680h92l-288 -778h-80z" />
<glyph unicode="w" horiz-adv-x="1202" d="M45 778h92l201 -680l223 680h80l223 -680l201 680h92l-249 -778h-84l-224 649l-221 -649h-82z" />
<glyph unicode="x" horiz-adv-x="676" d="M30 0l265 398l-250 380h99l194 -313l192 313h103l-252 -380l262 -398h-98l-207 328l-205 -328h-103z" />
<glyph unicode="y" horiz-adv-x="745" d="M45 778h92l235 -680l236 680h92l-364 -987q-22 -68 -74.5 -104.5t-128.5 -36.5h-39v74h29q33 0 55.5 5t38 17.5t27.5 32t22 49.5l66 172z" />
<glyph unicode="z" horiz-adv-x="708" d="M76 0v78l471 626h-445v74h531v-80l-473 -624h473v-74h-557z" />
<glyph unicode="{" horiz-adv-x="510" d="M80 538v70h30q22 0 40 10t28 21q31 29 31 99v333q0 32 2 55.5t6.5 41.5t12.5 31t20 25q23 23 60 34q38 10 96 10h24v-74h-22q-22 0 -38 -1t-26 -3.5t-17 -7t-13 -10.5t-11 -15t-7 -21t-3.5 -28t-1.5 -39v-334q0 -30 -6 -54.5t-18.5 -43.5t-31.5 -35t-45 -28 q26 -12 45 -27t31.5 -34.5t18.5 -44t6 -56.5v-332q0 -23 1.5 -40.5t3.5 -30t7 -21t11 -14.5t13 -10t17 -6.5t26 -3.5t38 -1h22v-72h-24q-58 0 -95.5 9t-60.5 32q-12 12 -20 26t-12.5 32t-6.5 41.5t-2 56.5v332q0 70 -31 98q-10 12 -28 21t-40 9h-30z" />
<glyph unicode="|" horiz-adv-x="510" d="M213 -119v1387h84v-1387h-84z" />
<glyph unicode="}" horiz-adv-x="510" d="M80 -47h20q22 0 38 1t27 3.5t18 6.5t13 10t10 14.5t7 21t4.5 30t1.5 40.5v332q0 32 6 56.5t18 44t31 33.5q18 16 44 28q-26 13 -44.5 28.5t-30.5 34.5t-18 43t-6 55v334q0 22 -1.5 38.5t-4.5 28.5t-7 21t-10 15q-6 7 -13 11t-18 6.5t-27 3.5t-38 1h-20v74h22 q30 0 54 -2.5t43 -8t34 -13.5t27 -20t20 -25t12.5 -31t6.5 -41.5t2 -55.5v-333q0 -70 31 -99q10 -11 27 -21t43 -10h28v-70h-28q-25 0 -42.5 -9t-27.5 -21q-31 -28 -31 -98v-332q0 -33 -2 -56.5t-6.5 -41.5t-12.5 -32t-20 -26t-27 -19.5t-34 -12.5t-43 -7t-54 -2h-22v72z " />
<glyph unicode="~" horiz-adv-x="829" d="M84 410q33 33 57.5 52.5t45.5 30.5t41 14t44 3q20 0 40 -4t40.5 -11t41 -16t42.5 -18q17 -8 32.5 -14.5t30.5 -11.5t30.5 -8t31.5 -3t29.5 2t28.5 10t32 22q17 16 41 40l52 -52q-33 -32 -57.5 -51.5t-45.5 -30.5t-41 -14.5t-43 -3.5q-20 0 -40.5 4t-40.5 11t-41 17 t-44 20q-17 6 -32 12t-30 11t-29 8t-30 3q-18 0 -32 -2t-29 -9t-32 -21t-42 -38z" />
<glyph unicode="&#xa2;" horiz-adv-x="803" d="M104 534q0 77 19 140.5t55 110t86.5 75t114.5 37.5v113h69v-113q30 -1 59.5 -7t57.5 -19t55 -33t54 -50l-56 -50q-22 24 -42 40.5t-41 27t-42 16.5t-45 8v-588q23 2 44.5 7.5t42.5 17t41 27.5q20 17 42 40l54 -48v-4q-27 -30 -53.5 -50t-53.5 -33t-56 -19t-61 -8v-139 h-69v143q-64 8 -114.5 36t-86.5 75t-55 109t-19 138zM184 534q0 -48 10 -95t33 -87t60 -68t92 -38v578q-52 -10 -89 -37t-60.5 -65.5t-34.5 -86.5q-11 -49 -11 -101z" />
<glyph unicode="&#xa3;" horiz-adv-x="772" d="M49 496v59h101v172q0 72 22.5 130.5t64.5 99.5t101.5 63t134.5 22q76 0 135 -22q60 -24 109 -66l-59 -59q-17 16 -34.5 29.5t-39.5 24.5t-49 17.5t-62 6.5q-57 0 -101 -17.5t-74.5 -50.5t-46 -81t-15.5 -109v-160h239v-59h-239v-422h479v-74h-565v496h-101z" />
<glyph unicode="&#xa5;" horiz-adv-x="817" d="M45 1034h92l277 -520l270 520h90l-238 -442h164v-60h-194l-54 -102v-62h248v-56h-248v-312h-86v312h-252v56h252v62l-57 102h-195v60h164z" />
<glyph unicode="&#xa9;" horiz-adv-x="1315" d="M104 542q0 77 20 148.5t56 132.5t86.5 112t112 87t131.5 56q72 20 148 20q77 0 148 -20t132.5 -56t111.5 -87t86 -112t55 -132.5t19 -148.5q0 -76 -19 -147t-55 -132t-86 -112t-111.5 -87t-133 -56t-147.5 -20t-147 20t-132.5 56t-112 87t-86.5 112t-56 132t-20 147z M180 542q0 -65 17.5 -125.5t49 -114.5t75.5 -98.5t97 -76.5t113 -49q62 -18 126 -18q65 0 125.5 17.5t114 49.5t98 76.5t76.5 98.5t49 114.5t17 125.5t-17 126.5t-49 115.5t-76.5 98t-98 76t-114.5 50t-125 18t-125 -18t-114 -50t-97 -76t-75.5 -98t-49 -115t-17.5 -127z M393 542q0 66 15.5 124t48.5 101t85 68t122 25q33 0 59.5 -5t51 -15t47.5 -25q22 -15 48 -37l-53 -51q-20 20 -38.5 32.5t-36.5 20t-37 10t-41 2.5q-57 0 -95.5 -20t-61.5 -54.5t-32.5 -80t-9.5 -95.5t9.5 -95t32.5 -79t61 -54.5t96 -20.5q22 0 41 2.5t37 10t36 20t39 32.5 l51 -49v-4q-24 -20 -46 -34.5t-46.5 -24.5t-52 -15t-59.5 -5q-70 0 -122 25t-85 68t-49 101q-15 56 -15 122z" />
<glyph unicode="&#xab;" horiz-adv-x="850" d="M68 428l317 316v-109l-211 -207l211 -211v-105zM402 428l317 316v-109l-211 -207l211 -211v-105z" />
<glyph unicode="&#xad;" horiz-adv-x="688" d="M133 387v76h422v-76h-422z" />
<glyph unicode="&#xae;" horiz-adv-x="1315" d="M104 542q0 77 20 148.5t56 132.5t86.5 112t112 87t131.5 56q72 20 148 20q77 0 148 -20t132.5 -56t111.5 -87t86 -112t55 -132.5t19 -148.5q0 -76 -19 -147t-55 -132t-86 -112t-111.5 -87t-133 -56t-147.5 -20t-147 20t-132.5 56t-112 87t-86.5 112t-56 132t-20 147z M178 542q0 -65 17.5 -126t49 -114.5t75.5 -98.5t97.5 -77.5t114 -50t126.5 -17.5t126.5 17.5t114 50t97.5 77.5t76 98.5t49 114.5t17 126q0 66 -17 127.5t-49 115t-76 98t-97.5 76.5t-114.5 49q-60 18 -126 18q-65 0 -126 -17.5t-114.5 -49.5t-97.5 -76.5t-75.5 -98 t-49 -115t-17.5 -127.5zM484 238v612h196q39 0 73.5 -13.5t60.5 -38t41 -57.5t15 -73q0 -33 -10 -60.5t-28 -48.5t-43 -36t-54 -25l152 -260h-86l-147 252h-99v-252h-71zM555 557h117q27 0 50 8t40 22.5t26.5 35.5t9.5 45q0 26 -9.5 47t-26.5 37t-40.5 25t-49.5 9h-117v-229 z" />
<glyph unicode="&#xbb;" horiz-adv-x="850" d="M133 112v105l209 211l-209 207v109l315 -316zM465 112v105l211 211l-211 207v109l317 -316z" />
<glyph unicode="&#xbc;" horiz-adv-x="1167" d="M72 854v80l120 100h72v-622h-72v546zM258 0l508 1034h82l-506 -1034h-84zM688 96v58l238 470h74l-234 -468h182v176h72v-176h80v-60h-80v-96h-72v96h-260z" />
<glyph unicode="&#xbd;" horiz-adv-x="1167" d="M72 854v80l120 100h72v-622h-72v546zM236 0l506 1034h82l-506 -1034h-82zM731 0v62l258 308q16 24 25 44q8 20 8 42q0 26 -7.5 46.5t-21.5 35t-34 22.5q-19 8 -45 8q-22 0 -42 -6.5t-36 -20t-26 -35.5q-9 -22 -9 -52h-70q0 39 12.5 71.5t36.5 55.5t58 35t76 12 q40 0 73.5 -12t57.5 -34.5t37.5 -54t13.5 -71.5q0 -18 -3 -34t-10 -31.5t-17 -31t-24 -31.5l-223 -266h277v-62h-365z" />
<glyph unicode="&#xbe;" horiz-adv-x="1167" d="M72 576h72q2 -30 13 -51t28 -34t38 -19.5t43 -6.5q26 0 48.5 8.5t39 24t26 38t9.5 52.5q0 52 -30.5 82t-96.5 30h-14v62h14q60 0 87.5 29t27.5 77q0 28 -9 49t-24.5 34.5t-36 20.5t-43.5 7q-50 0 -79 -26.5t-33 -74.5h-72q4 38 19 68.5t40 52t56.5 32.5t68.5 11 q42 0 76 -12t59 -34t38 -54t13 -72q0 -46 -21 -81t-65 -56q50 -17 72.5 -53t22.5 -92q0 -46 -14.5 -80t-40.5 -56t-61 -33t-77 -11q-39 0 -73.5 9.5t-61 30t-42.5 52.5q-15 32 -17 76zM368 0l508 1034h82l-510 -1034h-80zM727 96v58l231 470h78l-233 -468h184v176h70v-176 h77v-60h-77v-96h-70v96h-260z" />
<glyph unicode="&#xd7;" horiz-adv-x="829" d="M114 176l252 250l-252 250l52 47l248 -248l250 248l51 -47l-250 -250l250 -250l-51 -51l-250 250l-248 -250z" />
<glyph unicode="&#xf7;" horiz-adv-x="829" d="M84 387v76h660v-76h-660zM346 156q0 14 5 26.5t14 21.5t21 14q14 5 28 5t26.5 -5t21.5 -14t14.5 -21.5t5.5 -26.5t-5.5 -27t-14.5 -22t-21.5 -14t-26.5 -5t-27 5t-22 14t-14 22t-5 27zM346 692q0 14 5 27t14 22t21 14q14 5 28 5t26.5 -5t21.5 -14t14.5 -22t5.5 -27 t-5.5 -26t-14.5 -21t-21.5 -15t-26.5 -6t-27 6t-22 15t-14 21t-5 26z" />
<glyph unicode="&#xe01;" horiz-adv-x="889" d="M62 620q62 108 151.5 162t212.5 54q86 0 150 -22t106 -63t63 -101t21 -136v-514h-86v514q0 66 -18 113t-51.5 76t-81 43t-105.5 14q-34 0 -70 -7t-71 -23t-67 -42t-58 -64l65 -100v-524h-86v512z" />
<glyph unicode="&#xe02;" horiz-adv-x="764" d="M74 758q12 17 28.5 30.5t36 23t40.5 15t42 5.5q38 0 68.5 -11t51.5 -32t32.5 -50t11.5 -65q0 -26 -9.5 -50.5t-24.5 -47t-34 -43.5t-38 -40.5t-35.5 -39t-26.5 -37.5q-7 -13 -10.5 -26t-5 -23.5t-1.5 -19.5v-13v-78q0 -44 11 -79.5t33.5 -60.5t55.5 -38.5t77 -13.5 t75.5 13.5t52.5 38.5t31.5 60.5t10.5 79.5v572h90v-576q0 -58 -19 -107t-53.5 -84t-82.5 -54t-105 -19q-60 0 -108.5 19t-82.5 54t-53 84t-21 107v96q0 36 10 64t22 42q10 16 26 33t33.5 34.5t35 36t31.5 37.5t22.5 39t8.5 40q0 18 -6.5 33t-17.5 25t-26 16t-34 6 q-23 0 -43 -11t-32 -28z" />
<glyph unicode="&#xe03;" horiz-adv-x="764" d="M18 782l52 54l84 -64l18 16q44 36 86 45t76.5 -2t58 -39t29 -65.5t-9 -81.5t-56.5 -88l-128 -137q-10 -10 -16 -21.5t-8 -23t-3 -23.5t-1 -24v-72q0 -42 10.5 -77.5t32 -61t55 -39.5t79.5 -14q44 0 76.5 13.5t53 38.5t30.5 60.5t10 79.5v572h90v-576q0 -61 -19 -109.5 t-53.5 -83.5t-82.5 -53t-105 -18q-66 0 -115.5 20.5t-82.5 56.5t-50 84.5t-17 102.5v90q0 36 8 64q10 28 28 48l168 170q20 21 28 43.5t5 41.5t-14 33t-29 19t-41.5 -1.5t-49.5 -28.5l-47 -39q-4 -6 -14 -6t-17 6z" />
<glyph unicode="&#xe04;" horiz-adv-x="901" d="M123 0v528q0 78 24.5 136t68.5 96t104 57t132 19q76 0 137 -20t104 -59t66 -96t23 -133v-528h-86v528q0 60 -16 104t-48 72.5t-77 42t-103 13.5t-103 -13.5t-76 -42t-47 -72.5q-17 -44 -17 -104v-82q8 8 17.5 15t23 12t30.5 8q18 3 40 3h145v-70h-129q-37 0 -61.5 -9 t-39 -26.5t-20.5 -43.5q-6 -27 -6 -61v-274h-86z" />
<glyph unicode="&#xe05;" horiz-adv-x="919" d="M123 0v538q0 52 13.5 99t40 85.5t66.5 67t93 44.5l123 -126l125 126q51 -12 90.5 -39t66.5 -66t41 -88t14 -103v-538h-86v538q0 38 -6 69.5t-19 56t-32 44.5t-45 34l-114 -107q-16 -14 -33 -14t-33 14l-114 107q-50 -30 -76.5 -79t-26.5 -125v-90q8 8 17.5 14.5t23 11 t30.5 7.5q18 3 40 3h145v-70h-129q-37 0 -61.5 -9t-39 -26.5t-20.5 -43.5q-6 -27 -6 -61v-274h-88z" />
<glyph unicode="&#xe06;" horiz-adv-x="874" d="M28 782l50 54l88 -64l18 16q43 36 85.5 44t77.5 -3t58.5 -39t29.5 -66t-9.5 -81t-59.5 -86l-128 -137q-12 -12 -18 -27t-8 -29t-2 -26q-1 -10 -1 -16v-6q0 -54 18.5 -100t51.5 -79t76 -52t93 -19q54 0 95 16t67 46t39 73t13 96v533h90v-533q0 -69 -21 -126t-60 -97 t-95 -62t-128 -22q-36 0 -70 7.5t-65 21t-57 33.5t-45 46v-98h-88v326v16q0 36 8.5 64t28.5 48l166 170q20 21 28 43.5t6 41.5t-13.5 33t-29.5 19t-41.5 -1.5t-49.5 -28.5l-46 -39q-8 -6 -17 -6t-15 6z" />
<glyph unicode="&#xe07;" horiz-adv-x="644" d="M16 152l76 36q8 -28 22.5 -51t36 -39.5t49.5 -25t62 -8.5q44 0 76.5 13t53.5 37.5t31.5 59.5t10.5 78v504h-119v72h207v-576q0 -63 -17 -112.5t-51 -83t-82 -51t-110 -17.5q-50 0 -89.5 11t-70 32.5t-51.5 52t-35 68.5z" />
<glyph unicode="&#xe08;" horiz-adv-x="745" d="M6 666q18 42 46 73t66 53t84.5 33t100.5 11q70 0 128.5 -19.5t101 -58t65.5 -96.5q24 -58 24 -134v-528h-88v274q0 34 -5.5 60.5t-20 44t-38.5 26.5t-60 9h-142v72h158q22 0 39 -3t30 -8t23 -12q8 -7 16 -15v80q0 54 -16 97t-46 73t-72.5 46t-96.5 16q-37 0 -71.5 -8.5 t-64 -25t-51.5 -41.5t-34 -59z" />
<glyph unicode="&#xe09;" horiz-adv-x="874" d="M114 291v201h89v-201q0 -52 14.5 -94t41.5 -71.5t67 -44.5t90 -15q56 0 101 19t77 52.5t50 79t18 99.5v218q0 56 -17 98.5t-48 71t-75 42.5t-100 14q-37 0 -72.5 -8.5t-65.5 -25t-53 -42.5t-35 -60l-80 42q18 42 48 73t69 53t87 33t102 11q70 0 130 -18.5t104 -56 t69 -93.5t25 -134v-534h-88v100q-46 -54 -109 -82t-137 -28q-66 0 -121.5 21t-95.5 60t-62.5 94.5t-22.5 125.5z" />
<glyph unicode="&#xe0a;" horiz-adv-x="768" d="M74 766q32 34 71 50t85 16q38 0 69 -11t53 -32t34 -50t12 -65q0 -40 -15 -72t-45 -64l-110 -116q-10 -12 -16 -26t-8 -28t-3 -25t-1 -15v-78q0 -42 9.5 -76t30 -59t53.5 -38t79 -13q86 0 130.5 47t44.5 135v322q0 20 -7 37t-17.5 31t-24 24.5t-25.5 17.5q-8 4 -13.5 8 t-7.5 9t2 12.5t15 19.5l223 225l60 -57l-193 -191q22 -16 38 -36q14 -18 26 -43t12 -57v-326q0 -58 -18.5 -105.5t-52.5 -80.5t-82 -50q-50 -18 -110 -18q-64 0 -112 18t-80.5 52t-49 82t-18.5 106v96q0 36 8 66q10 30 28 48l130 132q22 22 32 43t10 43q0 24 -7.5 41t-20 27 t-29.5 15t-35 5q-12 0 -24 -4t-24 -10t-23 -14t-20 -15z" />
<glyph unicode="&#xe0b;" horiz-adv-x="794" d="M26 782l48 54l88 -64l18 16q34 28 67 39.5t62 9t53.5 -16.5t41.5 -36t24.5 -52t3.5 -63t-20 -68q-18 -35 -50 -69l-106 -110q-10 -12 -16 -26t-9 -28t-3 -25v-15v-78q0 -42 9 -76t30 -59t54 -38t81 -13q86 0 130 47t44 135v322q0 20 -8 37t-19 30.5t-25 24t-26 18.5 q-7 4 -12.5 8t-7 9t2 13t15.5 19l216 225l58 -57l-182 -191q22 -16 38 -36q14 -18 26 -43t12 -57v-326q0 -58 -18.5 -105.5t-52.5 -80.5t-82.5 -50.5t-108.5 -17.5q-64 0 -113 18t-81 52t-48 82t-18 106v96q0 36 8 65t28 49l144 148q24 24 32 48t5 45t-15.5 37t-31 22t-42 1 t-47.5 -26l-47 -39q-6 -6 -16 -6t-16 6z" />
<glyph unicode="&#xe0c;" horiz-adv-x="1378" d="M62 620q62 108 151.5 162t212.5 54q86 0 150 -21t106 -62t63 -100t21 -135v-211q0 -53 17 -97t46 -76t70 -50t88 -18q43 0 77 14.5t57.5 43.5t36 72t12.5 99v533h86v-531q0 -76 -20 -133.5t-55 -96t-84.5 -58t-109.5 -19.5q-34 0 -67.5 8t-62.5 23t-52 35t-39 44v-100 h-86v518q0 64 -17 110t-50 75t-81 43t-108 14q-34 0 -70 -7t-71 -23t-67 -42t-58 -64l65 -100v-334q0 -26 3 -46t12.5 -35t27.5 -23t48 -8h58v-78h-75q-43 0 -73 13t-49.5 37t-28.5 59t-9 79v324z" />
<glyph unicode="&#xe0d;" horiz-adv-x="1364" d="M62 620q62 108 151.5 162t212.5 54q86 0 150 -21t106 -62t63 -100t21 -135v-148q0 -59 12.5 -105.5t37 -78.5t60.5 -48q36 -17 84 -17t84.5 16.5t61 48.5t37 79t12.5 105v458h86v-476q0 -62 -15.5 -118t-48.5 -98t-85 -66q-54 -25 -128 -25q-72 0 -125 20.5t-88 60 t-53 97t-18 129.5v166q0 64 -17 110t-50 75t-81 43t-108 14q-34 0 -70 -7t-71 -23t-67 -42t-58 -64l65 -100v-334q0 -26 3 -46t12.5 -35t27.5 -23t48 -8h58v-78h-75q-43 0 -73 13t-49.5 37t-28.5 59t-9 79v324zM674 0h78q0 -34 15 -53t48 -19h426v-70h-443q-22 0 -43.5 6 t-39.5 22t-29.5 43.5t-11.5 70.5z" />
<glyph unicode="&#xe0e;" horiz-adv-x="923" d="M70 78q40 -2 61 10.5t30 32.5t10 43.5t1 44.5v303l-76 108q61 108 151.5 162t213.5 54q86 0 149.5 -21t106.5 -62t64 -100t22 -135v-716q0 -28 -13.5 -54t-35.5 -42t-52 -19t-63 14l-189 90q-11 4 -18.5 4.5t-17.5 -4.5l-197 -103l-43 56l224 114q10 6 18 8.5t16 2 t16 -2.5q8 -4 19 -8l205 -92q8 -4 15 -2.5t13.5 6.5t10.5 13.5t4 18.5v716q0 65 -18.5 111t-52 75.5t-81 42.5t-104.5 13q-34 0 -69.5 -7t-69.5 -23t-66 -42q-34 -26 -62 -64l68 -100v-336q0 -42 -9 -72.5t-23 -51.5t-33 -33.5t-38 -19.5t-38 -9t-35 -2z" />
<glyph unicode="&#xe0f;" horiz-adv-x="925" d="M70 78q40 -2 61 10.5t30 32.5t10 43.5t1 44.5v303l-76 108q61 108 151.5 162t213.5 54q86 0 150 -21t106.5 -62t64 -100t21.5 -135v-712q0 -30 -13.5 -57t-36.5 -43t-53 -19t-61 16l-145 86q-12 9 -27 0l-135 -86q-24 -14 -39 -13.5t-31 13.5l-168 125l66 39l129 -95 q6 -4 11 -4q6 0 12 4l134 86q18 12 33 12t35 -12l148 -86q8 -6 17.5 -6t17 4.5t13 13t5.5 22.5v712q0 65 -18.5 111t-52 75.5t-81 42.5t-104.5 13q-34 0 -69.5 -7t-69.5 -22.5t-66 -41.5q-32 -27 -62 -65l68 -100v-336q0 -42 -9 -72.5t-23 -51.5t-33 -33.5t-38 -19.5t-38 -9 t-35 -2z" />
<glyph unicode="&#xe10;" horiz-adv-x="745" d="M6 666q18 42 46 73t66 53t84.5 33t100.5 11t102 -12q49 -12 87 -36l164 166l59 -57l-162 -159q34 -39 51 -91q18 -53 18 -119v-528h-88v274q0 34 -5.5 60.5t-20 44t-38.5 26.5t-60 9h-142v72h158q22 0 39 -3t30 -8t23 -12q8 -7 16 -15v80q0 54 -16 97t-46 73t-72.5 46 t-96.5 16q-37 0 -71.5 -8.5t-64 -25t-51.5 -41.5t-34 -59zM58 -160l52 39l116 -90q6 -3 12 0l76 71q10 10 22 14t25 4t24 -4q11 -6 21 -14l84 -71q3 -3 9.5 -7t14.5 -3.5t14 7t6 24.5v110h88v-114q0 -28 -14.5 -52t-38 -37.5t-53.5 -11.5q-30 3 -60 27l-88 76q-4 4 -9.5 4 t-10.5 -4l-78 -74q-17 -16 -38.5 -16t-41.5 16z" />
<glyph unicode="&#xe11;" horiz-adv-x="899" d="M35 782l51 54l86 -64l18 16q43 35 85 44.5t76.5 -0.5t58.5 -36.5t30 -62.5l109 105q52 -1 94 -17.5t71.5 -47t45.5 -76t16 -105.5v-592h-86v586q0 36 -6 65.5t-20 52t-36 36.5q-20 14 -52 20l-330 -336q-11 -10 -16.5 -25t-7.5 -29t-2.5 -26t-0.5 -16v-328h-90v342 q0 36 9.5 64t27.5 48l168 170q20 21 27.5 43.5t5 41.5t-13.5 33t-29 19t-41 -1.5t-49 -28.5l-48 -39q-6 -6 -15 -6t-17 6z" />
<glyph unicode="&#xe12;" horiz-adv-x="1370" d="M100 215v323q0 52 14 99t40 85.5t66 67t94 44.5l114 -126l117 126q50 -12 90 -39t67.5 -66t41.5 -88t14 -103v-231q0 -53 17 -97t46 -76t70 -50t88 -18q86 0 134 54t48 166v542h86v-539q0 -76 -19.5 -132.5t-54.5 -93.5t-84.5 -55t-109.5 -18q-34 0 -67.5 8t-62.5 23 t-52.5 35t-38.5 44v-100h-86v538q0 76 -27 125t-77 79l-105 -107q-7 -8 -15.5 -11.5t-17.5 -3.5t-17.5 4t-14.5 11l-105 107q-26 -14 -45.5 -34t-32.5 -44.5t-20 -55.5q-7 -32 -7 -70v-321q0 -34 6 -60.5t20.5 -43.5t39 -26t60.5 -9h61v-78h-76q-50 0 -87.5 15t-62 43 t-37 68t-12.5 89z" />
<glyph unicode="&#xe13;" horiz-adv-x="1378" d="M62 620q62 108 151.5 162t212.5 54q86 0 150 -21t106 -62t63 -100t21 -135v-232q0 -112 48 -166t134 -54q48 0 88 18t70 50t47 76t17 97v519h86v-826h-86v100q-16 -24 -39.5 -44t-52.5 -35t-62.5 -23t-67.5 -8q-60 0 -109 18t-84.5 55t-55 93.5t-19.5 132.5v229 q0 64 -17 110t-50 75t-81 43t-108 14q-34 0 -70 -7t-71 -23t-67 -42t-58 -64l65 -100v-334q0 -26 3 -46t12.5 -35t27.5 -23t48 -8h58v-78h-75q-43 0 -73 13t-49.5 37t-28.5 59t-9 79v324z" />
<glyph unicode="&#xe14;" horiz-adv-x="903" d="M123 215v313q2 79 26.5 137.5t67 96t102.5 56.5q59 18 133 18q76 0 137 -20t104 -59t66 -96t23 -133v-528h-86v528q0 62 -18 106t-50 72t-77 41t-99 13t-99 -13.5t-77 -42t-50 -72.5q-17 -44 -17 -104v-311q0 -32 6.5 -58t20 -44t35 -27.5t51.5 -9.5h76v-78h-76 q-50 0 -87.5 15t-62 43t-37 68t-12.5 89z" />
<glyph unicode="&#xe15;" horiz-adv-x="903" d="M123 215v323q0 52 13.5 99t40 85.5t66.5 67t93 44.5l114 -126l118 126q50 -12 90 -39t67 -66t41 -88t14 -103v-538h-86v538q0 76 -27 125t-77 79l-104 -107q-14 -16 -33 -15.5t-33 15.5l-104 107q-26 -14 -46 -34t-33 -44.5t-21 -55.5q-7 -32 -7 -70v-321q0 -32 6.5 -58 t20 -44t35 -27.5t51.5 -9.5h76v-78h-76q-50 0 -87.5 15t-62 43t-37 68t-12.5 89z" />
<glyph unicode="&#xe16;" horiz-adv-x="889" d="M62 620q62 108 151.5 162t212.5 54q86 0 150 -21t106 -62t63 -100t21 -135v-518h-86v518q0 64 -17 110t-50 75t-81 43t-108 14q-34 0 -70 -7t-71 -23t-67 -42t-58 -64l65 -100v-334q0 -26 3 -46t12.5 -35t27.5 -23t48 -8h58v-78h-75q-43 0 -73 13t-49.5 37t-28.5 59 t-9 79v324z" />
<glyph unicode="&#xe17;" horiz-adv-x="880" d="M123 0v828h88v-99q46 54 107 81q60 26 136 26q70 0 127 -21.5t96 -61t60 -96.5t21 -129v-528h-86v528q0 56 -15.5 99t-43.5 72.5t-68.5 45t-90.5 15.5q-52 0 -96.5 -17t-77 -49t-51 -77t-18.5 -101v-516h-88z" />
<glyph unicode="&#xe18;" horiz-adv-x="794" d="M84 626q0 48 22 87t61.5 66t93.5 42t118 15q86 0 161.5 -22t129.5 -64l-58 -58q-50 34 -106 52t-127 18q-48 0 -86.5 -9t-66.5 -26t-43 -42t-15 -59q0 -56 41 -85t129 -37l135 -12q51 -4 95 -19.5t76 -43.5t50 -70.5t18 -102.5q0 -56 -23 -104.5t-66 -84.5t-104 -56.5 t-138 -20.5q-30 0 -62.5 5t-62.5 16t-56.5 27t-46 37.5t-31.5 49t-12 61.5v170h86v-168q0 -27 16 -49.5t42 -38.5t58.5 -25t66.5 -9q60 0 106.5 14t77.5 39t47 60t16 77q0 32 -9 60t-28 48t-48.5 33t-69.5 17l-139 14q-123 10 -186 60q-62 50 -62 138z" />
<glyph unicode="&#xe19;" horiz-adv-x="880" d="M123 299v529h86v-529q0 -56 15.5 -98.5t43.5 -72.5t68 -45t90 -15q52 0 96.5 17t77 48.5t51.5 77t19 101.5v516h88v-828h-88v98q-46 -54 -107 -80t-137 -26q-70 0 -126.5 21t-96 61t-60 97t-20.5 128z" />
<glyph unicode="&#xe1a;" horiz-adv-x="880" d="M123 297v531h88v-533q0 -58 16.5 -101.5t47.5 -71.5t73 -42t92 -14t93 14t73 43t47 72t17 100v533h88v-531q0 -75 -24.5 -132.5t-67.5 -96t-101.5 -58.5t-124.5 -20q-70 0 -128.5 21t-100.5 60.5t-65 96.5t-23 129z" />
<glyph unicode="&#xe1b;" horiz-adv-x="880" d="M123 297v531h88v-533q0 -58 16.5 -101.5t47.5 -71.5t73 -42t92 -14t93 14t73 43t47 72t17 100v929h88v-927q0 -75 -24.5 -132.5t-67.5 -96t-101.5 -58.5t-124.5 -20q-70 0 -128.5 21t-100.5 60.5t-65 96.5t-23 129z" />
<glyph unicode="&#xe1c;" horiz-adv-x="903" d="M123 289v323q0 49 12.5 89t37 68t62 43.5t87.5 15.5h76v-78h-76q-30 0 -51.5 -10t-35 -28t-20 -44t-6.5 -58v-321q0 -38 7.5 -69.5t20.5 -56t33 -44t46 -33.5l104 106q14 16 33 16t33 -16l104 -106q50 29 77 78.5t27 124.5v539h86v-539q0 -54 -14 -102.5t-41 -87.5 t-67 -66t-90 -39l-118 125l-114 -125q-53 16 -93 44t-66.5 67t-40 86t-13.5 98z" />
<glyph unicode="&#xe1d;" horiz-adv-x="903" d="M123 289v323q0 49 12.5 89t37 68t62 43.5t87.5 15.5h76v-78h-76q-30 0 -51.5 -10t-35 -28t-20 -44t-6.5 -58v-321q0 -38 7.5 -69.5t20.5 -56t33 -44t46 -33.5l104 106q14 16 33 16t33 -16l104 -106q50 29 76 78.5t26 124.5v935h88v-935q0 -54 -14 -102.5t-41 -87.5 t-67 -66t-90 -39l-118 125l-114 -125q-53 16 -93 44t-66.5 67t-40 86t-13.5 98z" />
<glyph unicode="&#xe1e;" horiz-adv-x="1089" d="M74 828h90l102 -701l244 701h70l244 -701l104 701h88l-136 -828h-88l-247 684l-248 -684h-90z" />
<glyph unicode="&#xe1f;" horiz-adv-x="1089" d="M74 828h90l102 -701l244 701h70l244 -701l167 1097h89l-200 -1224h-88l-247 684l-248 -684h-90z" />
<glyph unicode="&#xe20;" horiz-adv-x="925" d="M70 78q40 -2 61 10.5t30 32.5t10 43.5t1 44.5v303l-76 108q61 108 151.5 162t213.5 54q86 0 149.5 -21t106.5 -62t64 -100t22 -135v-518h-88v518q0 65 -18.5 111t-52 75.5t-81 42.5t-104.5 13q-34 0 -69.5 -7t-69.5 -22t-66 -41q-34 -26 -62 -64l68 -102v-336 q0 -42 -9 -72.5t-23 -51.5t-33 -33.5t-38 -19.5t-38 -9t-35 -2z" />
<glyph unicode="&#xe21;" horiz-adv-x="880" d="M123 0v828h88v-516q0 -56 18.5 -101.5t51 -77t77 -48.5t96.5 -17q50 0 90.5 15t68.5 45t43.5 73t15.5 98v529h86v-529q0 -72 -21 -128.5t-60 -96.5t-95 -61q-58 -21 -128 -21q-76 0 -136 26t-107 80v-98h-88z" />
<glyph unicode="&#xe22;" horiz-adv-x="874" d="M86 246q0 32 7.5 62t24 55t42.5 45t63 34q-36 10 -61 27.5t-41.5 40t-24.5 49.5t-10 57q0 44 12.5 83t37.5 67.5t62.5 45t85.5 16.5h112v-78h-95q-37 0 -62 -9t-40 -25.5t-21 -41t-6 -56.5t13 -58t40 -44.5t69 -28.5q44 -10 102 -10v-69q-58 0 -101 -12t-70 -34t-40 -53 t-13 -71q0 -36 18 -68t50 -55t77 -36t101 -13q72 0 119 20t75 56t39 86t11 110v490h90v-490q0 -80 -18 -145t-57 -111t-103 -70t-156 -24q-72 0 -125 14t-90 37t-60 51.5t-35.5 57t-17 54.5t-4.5 44z" />
<glyph unicode="&#xe23;" horiz-adv-x="702" d="M49 106l59 62q24 -26 47 -45t49 -32t59 -19t77 -6q59 0 99.5 13t65.5 36t35.5 53t10.5 64q0 38 -12.5 64.5t-34.5 44t-50.5 28.5t-60.5 18l-67 15q-58 12 -103 29t-76 42t-47 59t-16 80t16 87t48 71t81 48t113 18q42 0 77 -6t65 -17t57.5 -27t54.5 -36l-60 -58 q-24 17 -44 30t-42.5 22t-48 13.5t-59.5 4.5q-46 0 -79 -11.5t-54 -32t-31 -47.5t-10 -59q0 -30 10 -50.5t30 -35.5t51 -26t73 -21l80 -18q48 -11 89.5 -27.5t72 -43t48 -64.5t17.5 -94q0 -48 -18.5 -92t-55 -77.5t-92 -53t-129.5 -19.5q-54 0 -95 7t-75 22t-64 37 q-30 20 -61 50z" />
<glyph unicode="&#xe24;" horiz-adv-x="889" d="M62 620q62 108 151.5 162t212.5 54q86 0 150 -21t106 -62t63 -100t21 -135v-827h-86v827q0 64 -17 110t-50 75t-81 43t-108 14q-34 0 -70 -7t-71 -23t-67 -42t-58 -64l65 -100v-334q0 -26 3 -46t12.5 -35t27.5 -23t48 -8h58v-78h-75q-43 0 -73 13t-49.5 37t-28.5 59 t-9 79v324z" />
<glyph unicode="&#xe25;" horiz-adv-x="825" d="M60 234q0 57 19 103.5t56 79.5t91 51t122 18h266v71q0 50 -12.5 88t-41 63.5t-72.5 38.5t-107 13q-42 0 -75 -6t-60.5 -19t-51.5 -33q-24 -18 -50 -46l-66 56q29 29 59 52.5t65.5 39t79 24t99.5 8.5q164 0 242.5 -70t78.5 -201v-565h-88v410h-258q-106 0 -158 -46 t-52 -128t52 -126t164 -44v-76q-62 2 -117 13t-96 38.5t-65 74t-24 118.5z" />
<glyph unicode="&#xe26;" horiz-adv-x="925" d="M70 78q40 -2 61 10.5t30 32.5t10 43.5t1 44.5v303l-76 108q61 108 151.5 162t213.5 54q86 0 149.5 -21t106.5 -62t64 -100t22 -135v-825h-88v825q0 65 -18.5 111t-52 75.5t-81 42.5t-104.5 13q-34 0 -69.5 -7t-69.5 -22t-66 -41q-34 -26 -62 -64l68 -102v-336 q0 -42 -9 -72.5t-23 -51.5t-33 -33.5t-38 -19.5t-38 -9t-35 -2z" />
<glyph unicode="&#xe27;" horiz-adv-x="696" d="M39 676q19 38 47.5 67t64 50t75.5 32t83 11q70 0 126 -24t94.5 -67t58.5 -103t20 -134v-186q0 -67 -17 -127t-54 -105t-93 -71.5t-135 -26.5q-34 0 -67.5 7t-64.5 20t-57 33q-26 18 -46 44l59 54q14 -19 34.5 -34.5t43.5 -25.5t48 -15t50 -5q56 0 95.5 19.5t66 54 t39 80.5t12.5 100v184q0 50 -12 96t-37 80t-66 54t-98 20q-32 0 -61.5 -8t-55.5 -24t-47 -38t-35 -51z" />
<glyph unicode="&#xe28;" horiz-adv-x="911" d="M123 0v528q0 78 24.5 136t68.5 96t104 57t132 19q59 0 109 -12q51 -14 91 -38l155 158l59 -57l-154 -152q34 -37 52 -89t18 -118v-528h-86v528q0 60 -16 104t-48 72.5t-77 42t-103 13.5t-103 -13.5t-76 -42t-47 -72.5q-17 -44 -17 -104v-82q8 8 17.5 15t23 12t30.5 8 q18 3 40 3h145v-70h-129q-37 0 -61.5 -9t-39 -26.5t-20.5 -43.5q-6 -27 -6 -61v-274h-86z" />
<glyph unicode="&#xe29;" horiz-adv-x="905" d="M123 297v531h88v-533q0 -58 16.5 -101.5t47.5 -71.5t73 -42t92 -14t93 14t73 43t47 72t17 100v119h-146q-22 0 -44 6t-40 21.5t-29 43t-11 70.5h79q0 -37 14.5 -54t46.5 -17h130v344h88v-344h106v-70h-106v-117q0 -75 -24.5 -132.5t-67.5 -96t-101.5 -58.5t-124.5 -20 q-70 0 -128.5 21t-100.5 60.5t-65 96.5t-23 129z" />
<glyph unicode="&#xe2a;" horiz-adv-x="825" d="M60 234q0 57 19 103.5t56 79.5t91 51t122 18h266v71q0 50 -12.5 88t-41 63.5t-72.5 38.5t-107 13q-42 0 -75 -6t-60.5 -19t-51.5 -33q-24 -18 -50 -46l-66 56q29 29 59 52.5t65.5 39t79 24t99.5 8.5q65 0 115 -12q52 -12 90 -34l152 154l58 -57l-149 -147 q28 -32 41.5 -76t13.5 -99v-565h-88v410h-258q-106 0 -158 -46t-52 -128t52 -126t164 -44v-76q-62 2 -117 13t-96 38.5t-65 74t-24 118.5z" />
<glyph unicode="&#xe2b;" horiz-adv-x="880" d="M123 0v828h88v-406l508 416l53 -66l-168 -137q38 -18 67 -47.5t48 -66.5t29 -79t10 -86v-356h-86v356q0 85 -34 144q-34 60 -98 84l-329 -268v-316h-88z" />
<glyph unicode="&#xe2c;" horiz-adv-x="1100" d="M74 828h90l102 -701l244 701h70l244 -701l75 512q8 56 -20 83q-29 28 -95 30v76h70q28 0 49 7t36 19.5t25 30t15 39.5l19 67h90l-27 -94q-8 -28 -20 -48.5t-28 -36.5t-35.5 -27t-41.5 -19q31 -25 43.5 -57.5t5.5 -67.5l-105 -641h-88l-247 684l-248 -684h-90z" />
<glyph unicode="&#xe2d;" horiz-adv-x="831" d="M92 484h306v-70h-222v-44t1.5 -47t4.5 -45q2 -22 8 -38q10 -33 29.5 -64.5t48 -55.5t66 -38t84.5 -14q49 0 86.5 13t64.5 36t45 55t28 71t15 82t5 89q0 41 -5 82.5t-16 79.5t-30.5 72t-49.5 59t-71.5 39t-96.5 14q-37 0 -67 -6t-57 -18t-52 -31t-51 -45l-68 52 q32 30 64 54t67 40t76 24t93 8q85 0 150.5 -27t110.5 -81t68 -133t23 -183q0 -99 -23 -177.5t-66 -133.5t-104 -84t-139 -29q-58 0 -107.5 16t-88.5 46t-67.5 73t-44.5 98q-6 20 -9.5 51t-5.5 67t-2.5 73.5t-0.5 69.5z" />
<glyph unicode="&#xe2e;" horiz-adv-x="823" d="M88 484h305v-70h-221v-44t1.5 -47t4.5 -45q2 -22 8 -38q10 -33 29.5 -64.5t48 -55.5t66.5 -38t84 -14q49 0 86 13t64.5 36t45.5 55t28 71t15 82t5 89q0 41 -5 82.5t-16 79.5t-30.5 72t-49.5 59t-71.5 39t-96.5 14q-37 0 -67 -6t-57 -18t-52 -31t-51 -45l-68 52 q32 30 64 54t67 40t76 24t92 8q54 0 101 -12q48 -12 86 -34l160 162l58 -57l-155 -153q51 -54 77 -136t26 -194q0 -99 -23 -177.5t-66 -133.5t-105 -84q-60 -29 -138 -29q-58 0 -107.5 16t-88.5 46t-67.5 73t-44.5 98q-6 20 -9.5 51t-5.5 67t-2.5 73.5t-0.5 69.5z" />
<glyph unicode="&#xe2f;" horiz-adv-x="837" d="M80 600q0 48 12 90t37 72t62 48t87 18h76v-78h-61q-36 0 -60.5 -11t-39.5 -30.5t-21 -47t-6 -61.5q0 -50 15 -89t44 -65.5t72 -40.5t99 -14q113 0 170.5 60.5t57.5 179.5v197h91v-828h-91v416q-16 -22 -42 -41t-57 -32t-65 -20t-64 -7q-72 0 -130 19t-99.5 56t-64 89.5 t-22.5 119.5z" />
<glyph unicode="&#xe30;" horiz-adv-x="489" d="M74 289h82q0 -38 13 -55t46 -17h178v-69h-195q-22 0 -44 6t-40 21.5t-29 43t-11 70.5zM74 688h82q0 -37 13 -54.5t46 -17.5h178v-69h-195q-22 0 -44 6t-40 21.5t-29 43t-11 70.5z" />
<glyph unicode="&#xe31;" d="M-467 1153h84q0 -37 12.5 -54t44.5 -17h359v-70h-375q-22 0 -44 6t-40 21.5t-29.5 43t-11.5 70.5z" />
<glyph unicode="&#xe32;" horiz-adv-x="608" d="M4 725q32 52 91 81.5t141 29.5q62 0 109 -18t78 -52t47 -83t16 -111v-572h-86v568q0 44 -9 79t-28 60t-51 39q-30 14 -76 14q-58 0 -101 -21t-63 -59z" />
<glyph unicode="&#xe33;" horiz-adv-x="608" d="M-301 1122q0 28 10.5 52t28.5 42t42 29t52 11q27 0 50.5 -11t41.5 -29t28.5 -42t10.5 -52q0 -27 -10.5 -50.5t-28.5 -41.5t-41.5 -28.5t-50.5 -10.5q-28 0 -52 10.5t-42 28.5t-28.5 41.5t-10.5 50.5zM-236 1122q0 -14 5.5 -26t15 -20.5t21.5 -13.5t26 -5t26 5t21.5 13.5 t15 20.5t5.5 26t-5.5 27t-15 22t-21.5 14t-26 5t-26 -5t-21.5 -14t-15 -22t-5.5 -27zM4 725q32 52 91 81.5t141 29.5q62 0 109 -18t78 -52t47 -83t16 -111v-572h-86v568q0 44 -9 79t-28 60t-51 39q-30 14 -76 14q-58 0 -101 -21t-63 -59z" />
<glyph unicode="&#xe34;" d="M-758 1012v70h635v-70h-635z" />
<glyph unicode="&#xe35;" d="M-758 1012v70h547v142h88v-212h-635z" />
<glyph unicode="&#xe36;" d="M-756 1012v70h410q-6 8 -11 23t-5 29q0 26 9.5 49t26 40t38.5 27t48 10t49 -10t40 -27t27 -40t10 -49t-10 -48t-27 -38.5t-40 -26t-49 -9.5h-516zM-299 1134q0 -12 5 -23t13.5 -19t18.5 -12q10 -5 22 -5q13 0 24.5 4.5t20.5 12.5t14 19t5 23q0 13 -5 24.5t-14 19.5 t-20 13t-25 5q-12 0 -22 -5t-18.5 -13t-13.5 -19.5t-5 -24.5z" />
<glyph unicode="&#xe37;" d="M-762 1012v70h400v142h78v-142h84v142h77v-212h-639z" />
<glyph unicode="&#xe38;" d="M-295 -133h35q38 0 64.5 -5.5t42.5 -21.5t23 -44t7 -74v-113h-88v111q0 24 -3 38t-10 21t-18.5 9.5t-27.5 2.5h-25v76z" />
<glyph unicode="&#xe39;" d="M-500 -133h50q29 0 48.5 -5.5t30.5 -18.5t16 -33t5 -48v-10q0 -12 3 -24t11.5 -23t22 -18t35.5 -7t35 7t21 18t10.5 23t2.5 24v115h86v-115q0 -32 -11.5 -58.5t-32.5 -45t-49 -28.5q-28 -11 -62 -11q-36 0 -65 10.5t-49 29t-31 45t-11 58.5q0 24 -9 32.5t-30 8.5h-27v74z " />
<glyph unicode="&#xe3a;" d="M-236 -200q0 14 5.5 26t15 21t21.5 14.5t26 5.5t26 -5.5t21.5 -14.5t14.5 -21q6 -12 6 -26t-5.5 -26.5t-15 -22t-21.5 -14.5t-26 -5t-26 5t-21.5 14.5t-15 22t-5.5 26.5z" />
<glyph unicode="&#xe3e;" />
<glyph unicode="&#xe3f;" horiz-adv-x="977" d="M144 0v1034h286v96h86v-96h31q68 0 125.5 -18t99.5 -52.5t66 -85t24 -114.5q0 -40 -11 -76.5t-32 -67t-52 -53.5t-71 -37q43 -14 77 -38t57.5 -55.5t35.5 -71t12 -83.5q0 -70 -22.5 -122.5t-64.5 -88t-101 -53.5t-131 -18h-43v-100h-86v100h-286zM232 74h198v418h-198 v-418zM232 565h198v397h-198v-397zM516 74h33q56 0 100.5 14t76.5 41t49 66t17 87t-17 87t-49 66t-77 42t-100 15h-33v-418zM516 565h18q49 0 93.5 11.5t77.5 35.5t52 62t19 90q0 53 -19 90.5t-52 61.5t-77 35t-94 11h-18v-397z" />
<glyph unicode="&#xe40;" horiz-adv-x="368" d="M123 188v640h88v-638q0 -26 2.5 -46t12.5 -35t27.5 -23t47.5 -8h59v-78h-76q-43 0 -73.5 13t-49.5 37t-28.5 59t-9.5 79z" />
<glyph unicode="&#xe41;" horiz-adv-x="760" d="M123 188v640h88v-638q0 -26 2.5 -46t12.5 -35t27.5 -23t47.5 -8h59v-78h-76q-43 0 -73.5 13t-49.5 37t-28.5 59t-9.5 79zM514 188v640h88v-638q0 -26 3 -46t12 -35t27 -23t48 -8h60v-78h-76q-43 0 -73.5 13t-50.5 37t-29 59t-9 79z" />
<glyph unicode="&#xe42;" horiz-adv-x="428" d="M14 1151l16 69h456v-67h-306q23 -20 37.5 -44.5t23.5 -49t12 -48t3 -40.5v-775q0 -26 2 -47t11 -37t27 -25t50 -9h60v-78h-76q-45 0 -76.5 14.5t-50.5 40.5t-27 61.5t-8 77.5v779q0 40 -10 73t-29 56t-48 35.5t-67 13.5z" />
<glyph unicode="&#xe43;" horiz-adv-x="428" d="M12 1096q6 42 27 74t51 54t66 33t70 11q52 0 90 -13t64 -36t39 -57q13 -32 13 -74q0 -18 -4 -35.5t-13 -35t-23 -37t-34 -42.5l-78 -92q-12 -13 -17 -24.5t-6.5 -23.5t-1 -26t0.5 -30v-546q0 -26 2 -47t11 -37t27 -25t50 -9h60v-78h-76q-45 0 -76.5 14.5t-50.5 40.5 t-27 61.5t-8 77.5v552v35t5 32.5t15 35.5t31 44l84 98q17 21 26.5 36.5t14 27t5.5 19.5t1 14q0 30 -10.5 49.5t-28 31t-39.5 16.5t-46 5q-18 0 -39 -4.5t-39 -17t-32.5 -33.5t-21.5 -53z" />
<glyph unicode="&#xe44;" horiz-adv-x="442" d="M-30 1153v67h438l16 -69q-38 -1 -66.5 -13.5t-48 -35.5t-29.5 -55.5t-10 -73.5v-777q0 -26 2.5 -47t11.5 -37t27 -25q17 -9 49 -9h60v-78h-74q-45 0 -76.5 14.5t-50.5 40.5t-28 61.5t-9 77.5v777q0 18 3.5 41t12 47.5t23 49t37.5 44.5h-288z" />
<glyph unicode="&#xe45;" horiz-adv-x="608" d="M4 725q32 52 91 81.5t141 29.5q62 0 109 -18t78 -52t47 -83t16 -111v-881h-86v877q0 44 -9 79t-28 60t-51 39q-30 14 -76 14q-58 0 -101 -21t-63 -59z" />
<glyph unicode="&#xe46;" horiz-adv-x="852" d="M98 612q0 46 8.5 81t27.5 61t50 44q31 20 76 32l160 -134l156 134q32 -9 59.5 -24.5t48 -37t32.5 -50.5q13 -28 13 -66v-961h-88v958q0 30 -14 55q-13 26 -43 40l-140 -118q-11 -8 -24.5 -8t-23.5 8l-144 118q-11 -6 -22.5 -12.5t-21 -20t-16 -36.5t-6.5 -63 q0 -23 1 -46.5t8.5 -42.5t25 -31.5t49.5 -12.5h8v-63h-22q-34 0 -63 9t-50 32t-33 61t-12 94z" />
<glyph unicode="&#xe47;" d="M-748 1172q0 30 12 58.5t33.5 51t53 37.5t69.5 17h457v-66h-445q-24 0 -43 -10.5t-31 -26t-19 -32.5t-7 -29q0 -14 4 -29t11.5 -28t18.5 -24q12 -11 26 -18l126 76q11 8 25 7.5t25 -7.5l131 -76q14 6 25 14.5t17 21.5t7 29q0 18 -4 40h78q8 -36 1 -67t-25 -55t-46 -40 t-61 -22l-147 92l-144 -92q-32 9 -59 23.5t-46.5 36.5t-31 51t-11.5 67z" />
<glyph unicode="&#xe48;" d="M-207 1331v172h84v-172h-84z" />
<glyph unicode="&#xe49;" d="M-362 1331v65q10 0 20 2q8 1 18 2.5t19 4.5q8 2 17.5 6t17.5 12t13 20.5t5 30.5q0 28 -20 44q-20 15 -58 12v74q36 0 65 -7t50 -21t32 -37t11 -54q0 -22 -10 -44.5t-25 -37.5h256v-72h-411z" />
<glyph unicode="&#xe4a;" d="M-555 1460q0 30 8.5 53.5t21.5 41t29 29.5t31 22q7 3 15 5.5t17 3t18 -3t19 -11.5l72 -64l60 64q8 8 17 11t19 3t18 -3t14 -5q17 -10 33.5 -23t29.5 -30t21 -40t8 -53v-61h170v-68h-248v129q0 22 -6 37t-14 24t-16 14t-14 7l-61 -68q-6 -8 -14.5 -11t-16.5 -3q-6 0 -13 4 t-13 10l-74 68q-7 -2 -16 -6t-17.5 -13t-14 -23t-5.5 -36q0 -13 5.5 -25t15.5 -21.5t25 -15.5t33 -6v-71h-12q-31 0 -57.5 11t-45.5 29.5t-30.5 43t-11.5 51.5z" />
<glyph unicode="&#xe4b;" d="M-324 1438v72h121v110h80v-110h121v-72h-121v-107h-80v107h-121z" />
<glyph unicode="&#xe4c;" d="M-209 1231q0 45 11.5 73t29.5 43t40 20t44 5h160v-70h-150q-17 0 -26.5 -4t-14.5 -13t-6.5 -22t-1.5 -32h-86z" />
<glyph unicode="&#xe4d;" d="M-301 1122q0 28 10.5 52t28.5 42t42 29t52 11q27 0 50.5 -11t41.5 -29t28.5 -42t10.5 -52q0 -27 -10.5 -50.5t-28.5 -41.5t-41.5 -28.5t-50.5 -10.5q-28 0 -52 10.5t-42 28.5t-28.5 41.5t-10.5 50.5zM-236 1122q0 -14 5.5 -26t15 -20.5t21.5 -13.5t26 -5t26 5t21.5 13.5 t15 20.5t5.5 26t-5.5 27t-15 22t-21.5 14t-26 5t-26 -5t-21.5 -14t-15 -22t-5.5 -27z" />
<glyph unicode="&#xe4e;" d="M-211 1014q0 40 6.5 66t18 41.5t27 21.5t34.5 6q0 29 11.5 44.5t29 22.5t38 7.5t38.5 0.5h74v-69h-64q-17 0 -26.5 -2.5t-14.5 -9.5t-7 -21q-1 -12 -1 -34h-51q-9 0 -14.5 -6t-8.5 -16t-3.5 -23.5t-0.5 -28.5h-86z" />
<glyph unicode="&#xe4f;" horiz-adv-x="1054" d="M106 410q0 58 15 111t42 99.5t65 85t84 65.5t98.5 42t109.5 15q58 0 111.5 -15t100 -42t84.5 -65.5t65 -85t42 -99.5t15 -111q0 -56 -15 -109t-42 -99t-65 -84t-84.5 -65t-100 -42t-111.5 -15q-56 0 -109 15t-99 42t-84 65t-65 84t-42 98.5t-15 109.5zM188 410 q0 -46 12 -88t34 -79t52 -67.5t67 -52t79 -33.5t88 -12t89 12t81 33.5t68 52t52 67.5t34 79t12 88q0 70 -26 131t-72 106.5t-107 72t-131 26.5q-46 0 -88 -12t-79 -34t-67 -52.5t-52 -68t-34 -80.5t-12 -89zM299 410q0 46 17.5 86.5t47.5 71t70.5 48t85.5 17.5 q46 0 87 -17.5t71 -48t48 -71t18 -86.5q0 -45 -18 -85.5t-48 -70.5t-71 -48t-87 -18q-45 0 -85.5 18t-70.5 48t-47.5 70.5t-17.5 85.5zM381 410q0 -28 11 -54t30 -45t44.5 -30t53.5 -11q29 0 55 11t45 30t30 45q12 26 12 54q0 29 -11.5 54.5t-30.5 44.5t-45 30.5t-55 11.5 q-28 0 -53.5 -11.5t-44.5 -30.5t-30 -44.5t-11 -54.5z" />
<glyph unicode="&#xe50;" horiz-adv-x="934" d="M74 364q0 78 26 146t76 118.5t123.5 80t167.5 29.5t167.5 -29.5t123.5 -80t76 -118.5t26 -146t-26 -146t-76 -119t-123 -80t-168 -29q-94 0 -167.5 29t-123.5 80t-76 119t-26 146zM162 364q0 -63 22 -117.5t62 -95.5t96.5 -65t124.5 -24q46 0 86 11t74 31t60.5 47 t45.5 60.5t29 72t10 80.5q0 62 -22 116t-62 94t-96.5 63t-124.5 25q-68 -1 -124.5 -24.5t-96.5 -63.5t-62 -94t-22 -116z" />
<glyph unicode="&#xe51;" horiz-adv-x="934" d="M74 360q0 84 29.5 153t82 118t124.5 76.5t157 27.5q89 0 161 -29.5t122.5 -83t78 -129t27.5 -167.5q0 -88 -22 -159t-62 -127t-95.5 -99t-121.5 -76l-41 59q58 32 105 71t80.5 88t52 109t18.5 136t-24 137.5t-65 105t-96 67.5t-118 26q-40 0 -77.5 -11t-71.5 -29t-62 -45 t-48.5 -60.5t-32 -73t-11.5 -85.5q0 -130 60 -194t180 -66q-1 0 -1.5 -11t-0.5 -25q0 -16 2 -36q-90 0 -153 25t-102 70t-57 105t-18 132z" />
<glyph unicode="&#xe52;" horiz-adv-x="1014" d="M86 314v632h88v-630q0 -46 15 -82t40 -64t60 -48t74.5 -33t82 -19t84.5 -6t82.5 6t76.5 19t66.5 33t52.5 48t34 64t12 82v110q0 38 -7 73t-21.5 63t-35.5 48q-20 21 -48 31l-111 -103q-14 -16 -33 -16t-33 16l-88 103q-38 -14 -61 -44.5t-31 -72.5l-82 27q9 38 27 68.5 t43 53.5t55 39q32 16 66 26l102 -126l127 126q56 -16 97 -45t67.5 -67t39.5 -85t13 -99v-126q0 -84 -30.5 -146t-85 -101t-129.5 -58t-165 -19q-60 0 -115.5 8t-105 25t-90.5 43t-70.5 61.5t-46 81t-16.5 103.5z" />
<glyph unicode="&#xe53;" horiz-adv-x="997" d="M74 364q0 66 17.5 124.5t48.5 106.5t72.5 84.5t90.5 60.5l195 -160l194 160q48 -23 90.5 -59.5t74 -84.5t49.5 -106t18 -124q0 -62 -11.5 -116t-30 -101t-43.5 -86t-51 -69l-71 41q19 26 40 58.5t38.5 73t29 90t11.5 107.5q0 44 -11 87t-29.5 79t-44 64t-55.5 45 l-168 -137q-16 -14 -31.5 -14t-29.5 14l-164 137q-26 -16 -50.5 -44.5t-45 -64.5t-33.5 -78q-12 -44 -12 -88q0 -62 14 -116t43 -94t72 -64t102 -24q-1 0 -1 -12v-24q0 -16 1 -36q-59 0 -105.5 15t-82 42t-60.5 62.5t-41 77t-23 85.5t-7 88z" />
<glyph unicode="&#xe54;" horiz-adv-x="1044" d="M74 364q0 78 22 144.5t67 115t111.5 76t155.5 27.5h379l151 151l60 -57l-168 -165h-422q-63 -1 -112.5 -23.5t-84.5 -61.5t-53 -92t-18 -115q0 -63 18 -116.5t53 -92.5t84.5 -61t112.5 -22h174q-16 13 -31.5 32.5t-27.5 43.5t-19.5 51t-7.5 57q0 57 16 98t48 67.5t78 39 t106 12.5h22v-71h-14q-38 0 -69.5 -7t-54 -24t-34.5 -44t-12 -69q0 -92 54 -138q53 -46 153 -48h82v-72h-463q-89 0 -155.5 27.5t-111.5 76t-67 115.5t-22 145z" />
<glyph unicode="&#xe55;" horiz-adv-x="1044" d="M74 364q0 78 22 144.5t67 115t111.5 76t155.5 27.5h74q-18 27 -18 61q0 28 10 52t28 42t42 29t52 11q27 0 51 -11t41.5 -29t28.5 -42t11 -52q0 -34 -19 -61h78l155 151l60 -54l-176 -168h-418q-63 -1 -112.5 -23.5t-84.5 -61.5t-53 -92t-18 -115q0 -63 18 -116.5 t53 -92.5t84.5 -61t112.5 -22h170q-16 13 -31.5 32.5t-27.5 43.5t-19.5 51t-7.5 57q0 57 16 98t48 67.5t78 39t106 12.5h22v-71h-14q-38 0 -69.5 -7t-54 -24t-34.5 -44t-12 -69q0 -92 54 -138q53 -46 153 -48h86v-72h-463q-89 0 -155.5 27.5t-111.5 76t-67 115.5t-22 145z M551 788q0 -14 5.5 -26t14.5 -20.5t21 -13.5t26 -5t26.5 5t22 13.5t14.5 20.5t5 26t-5 27t-14.5 22t-22 14t-26.5 5t-26 -5t-21 -14t-14.5 -22t-5.5 -27z" />
<glyph unicode="&#xe56;" horiz-adv-x="1014" d="M35 824l59 56l197 -202q20 10 47.5 21t59.5 20t69.5 15t77.5 6q100 0 174 -30t123.5 -81t73.5 -119t24 -146t-24.5 -146t-74 -117.5t-123.5 -78t-173 -28.5q-81 0 -145 20t-110.5 54t-73.5 80.5t-32 99.5q-3 32 1.5 57t12.5 45.5t20 35.5t25 26t25 18.5t21 11.5l43 -70 q-11 -7 -22.5 -14.5t-19.5 -20.5t-13 -34t-3 -53q2 -28 15 -52t33 -44t46 -35t55.5 -25t60.5 -15t61 -5q74 0 131.5 21.5t96.5 60.5t59 92.5t20 115.5t-20 116.5t-59.5 95t-97 63.5t-130.5 25q-50 0 -88.5 -7t-70 -19t-57.5 -28q-27 -14 -51 -32z" />
<glyph unicode="&#xe57;" horiz-adv-x="1036" d="M74 344q0 76 21 137.5t56.5 110t80.5 84.5q44 38 92 64l182 -160l182 160q14 -5 30 -15t34 -22.5t36 -27.5t33 -31t26 -32t17 -30v296h86v-532q0 -67 -16 -122.5t-39 -100t-50 -77t-49 -52.5l-71 41q19 20 43 48.5t45 66t35 86t14 108.5q0 49 -15.5 94t-40 83.5t-55 67.5 t-59.5 48l-156 -137q-16 -14 -31.5 -14t-29.5 14l-155 137q-26 -22 -54 -48.5t-51 -61.5t-38 -80t-15 -103q0 -67 18 -118.5t50 -87.5t75 -54t93 -18q-1 0 -2 -12v-24q0 -16 2 -36q-58 0 -105 14t-83 38.5t-61.5 58t-42 72.5t-24.5 81.5t-8 85.5z" />
<glyph unicode="&#xe58;" horiz-adv-x="1009" d="M74 368q0 44 8 88t26 84t45 74t64.5 59t85 39.5t107.5 14.5h378l148 151l60 -57l-164 -165h-422q-58 -1 -104 -23t-78 -60.5t-49 -90.5t-17 -114q0 -44 13 -84t34 -74t47.5 -62t52.5 -50l164 136q14 14 30 14q15 0 31 -14l164 -140q23 11 42.5 26.5t34 35.5t22.5 45.5 t8 56.5q0 24 -6.5 44t-17.5 35t-25 27t-29 19l23 73q32 -10 57 -27.5t43 -42t27.5 -57.5t9.5 -73q0 -43 -11.5 -80t-35.5 -69.5t-61 -60.5t-87 -52l-188 160l-188 -160q-48 23 -92 59.5t-77.5 84.5t-53 106t-19.5 124z" />
<glyph unicode="&#xe59;" horiz-adv-x="1124" d="M74 364q0 78 24.5 146t72 118.5t116.5 80t157 29.5q48 0 88.5 -12t75 -34t64.5 -54t57 -73q4 38 15.5 68.5t33.5 51.5t57 32.5t85 11.5h160v-67h-146q-37 0 -61.5 -8t-40.5 -22t-24 -33t-11.5 -41.5t-4 -47t-0.5 -49.5l226 -426l-76 -35l-248 463q-56 102 -117 150.5 t-133 48.5q-63 0 -114.5 -23t-89 -63.5t-58 -95t-20.5 -116.5q0 -63 20.5 -117.5t58 -95t89.5 -64t114 -23.5v-74q-89 0 -158 29t-116.5 80t-71.5 119t-24 146z" />
<glyph unicode="&#xe5a;" horiz-adv-x="1104" d="M80 600q0 48 12 90t37 72t62 48t87 18h76v-78h-61q-36 0 -60.5 -11t-39.5 -30.5t-21 -47t-6 -61.5q0 -50 15 -89t44 -65.5t72 -40.5t99 -14q113 0 170.5 60.5t57.5 179.5v197h91v-828h-91v416q-14 -23 -40 -41.5t-58 -31.5t-66 -20t-64 -7q-72 0 -130 19t-99.5 56 t-64 89.5t-22.5 119.5zM891 0v828h90v-828h-90z" />
<glyph unicode="&#xe5b;" horiz-adv-x="1810" d="M116 422q0 56 13 103.5t34.5 85t51 65.5t62.5 47t69 28t72 9t63.5 -6.5t48 -16t34.5 -21.5t26 -22l-58 -63q-30 26 -59 37.5t-59 11.5q-40 0 -78.5 -16.5t-68.5 -49t-48.5 -80.5t-18.5 -112q0 -78 27.5 -133t73 -90t104.5 -51.5t121 -16.5q46 0 89 14.5t81 40.5t69 61.5 t54 77t35 87.5t12 92q0 28 -3 53t-11 49l60 43q18 -18 38 -42.5t42 -54.5t44.5 -62t43 -63t39 -60t32.5 -51q10 16 21.5 37t23.5 45l24 48l23 46t19.5 40t13.5 31l39 13l94 -130h281v-65h-310l-65 88q-9 -19 -22 -44.5t-28 -54t-31 -58.5t-32 -57.5t-31 -51.5t-26 -41 q-16 30 -38.5 70t-48.5 82.5t-54 83t-54 71.5q-14 -92 -50.5 -167.5t-92 -130.5t-126.5 -85t-153 -30q-103 0 -180 28t-128.5 77t-77.5 116t-26 145z" />
<glyph unicode="&#x2000;" horiz-adv-x="810" />
<glyph unicode="&#x2001;" horiz-adv-x="1620" />
<glyph unicode="&#x2002;" horiz-adv-x="810" />
<glyph unicode="&#x2003;" horiz-adv-x="1620" />
<glyph unicode="&#x2004;" horiz-adv-x="540" />
<glyph unicode="&#x2005;" horiz-adv-x="405" />
<glyph unicode="&#x2006;" horiz-adv-x="270" />
<glyph unicode="&#x2007;" horiz-adv-x="270" />
<glyph unicode="&#x2008;" horiz-adv-x="202" />
<glyph unicode="&#x2009;" horiz-adv-x="324" />
<glyph unicode="&#x200a;" horiz-adv-x="90" />
<glyph unicode="&#x200b;" />
<glyph unicode="&#x2010;" horiz-adv-x="688" d="M133 387v76h422v-76h-422z" />
<glyph unicode="&#x2011;" horiz-adv-x="688" d="M133 387v76h422v-76h-422z" />
<glyph unicode="&#x2012;" horiz-adv-x="688" d="M133 387v76h422v-76h-422z" />
<glyph unicode="&#x2013;" horiz-adv-x="829" d="M84 387v76h660v-76h-660z" />
<glyph unicode="&#x2014;" horiz-adv-x="1405" d="M133 387v76h1141v-76h-1141z" />
<glyph unicode="&#x2018;" horiz-adv-x="420" d="M152 938v123l114 105v-228h-114z" />
<glyph unicode="&#x2019;" horiz-adv-x="420" d="M152 864v226h114v-124z" />
<glyph unicode="&#x201c;" horiz-adv-x="671" d="M152 938v123l114 105v-228h-114zM404 938v123l114 105v-228h-114z" />
<glyph unicode="&#x201d;" horiz-adv-x="671" d="M152 864v226h114v-124zM404 864v226h114v-124z" />
<glyph unicode="&#x2022;" horiz-adv-x="919" d="M274 418q0 38 15 72t40 59t59 40t73 15q38 0 72 -15t59.5 -40t40 -59t14.5 -72t-14.5 -72t-40 -59.5t-59.5 -40t-72 -14.5t-72.5 14.5t-59.5 40t-40 59.5t-15 72z" />
<glyph unicode="&#x202f;" horiz-adv-x="324" />
<glyph unicode="&#x205f;" horiz-adv-x="405" />
<glyph unicode="&#x20ac;" horiz-adv-x="925" d="M22 398v73h109v47q0 32 -0.5 61t0.5 56h-109v73h113q3 40 9 72t16.5 59t27 51t40.5 48q51 52 118 79q68 27 142 27q69 0 127.5 -20.5t104.5 -60t77 -95.5t43 -128h-84q-10 54 -34.5 96.5t-59 72.5t-78.5 46t-96 16q-54 0 -104 -19.5t-89 -58.5q-18 -18 -31.5 -36.5 t-22 -41t-14 -49t-8.5 -58.5h281v-73h-287v-117v-47h287v-73h-287q2 -50 6.5 -87t13.5 -67t24 -54t38 -46q38 -39 88 -60q51 -20 105 -20q52 0 96 16t79.5 47t60 74t36.5 96h78l2 -2q-12 -70 -43 -126.5t-77 -96.5t-105 -61t-127 -21q-74 0 -142 28q-68 26 -118 78 q-30 28 -48 58t-28.5 65t-15 78t-5.5 101h-109z" />
<glyph unicode="&#x2122;" horiz-adv-x="1245" d="M51 975v59h445v-59h-189v-563h-69v563h-187zM610 412v622h70l202 -389l202 389h69v-622h-71v470l-166 -310h-68l-166 310v-470h-72z" />
<glyph unicode="&#x25cc;" horiz-adv-x="1149" d="M278 492l78 38q-4 -22 -4 -42t4 -36zM362 280l27 82q22 -34 55 -55zM372 700l78 -26q-32 -21 -54 -52zM534 708l42 78l36 -76q-18 2 -34 2q-24 0 -44 -4zM538 268q18 -4 40 -4q16 0 30 4l-32 -72zM702 674l86 26l-30 -80q-24 32 -56 54zM704 303q30 20 50 49l20 -72z M796 456q4 14 5 32q-1 18 -5 38l72 -38z" />
<glyph unicode="&#x25fc;" horiz-adv-x="777" d="M0 0v778h778v-778h-778z" />
<glyph unicode="&#xf700;" horiz-adv-x="747" d="M0 666q18 42 46 73t66 53t84.5 33t100.5 11q56 0 101 -12q44 -14 86 -38l165 168l59 -57l-163 -162q34 -37 53 -89q18 -52 18 -118v-528h-88v274q0 34 -5.5 60.5t-20 44t-38.5 26.5t-60 9h-142v72h158q22 0 39 -3t30 -8t23 -12q8 -7 16 -15v58q0 124 -57 189t-174 65 q-37 0 -71 -8.5t-63 -25t-50 -42.5t-33 -60q-22 10 -40 20l-15 7.5t-12.5 6.5t-8.5 5z" />
<glyph unicode="&#xf701;" d="M-838 1012v70h533v-70h-533z" />
<glyph unicode="&#xf702;" d="M-838 1012v70h445v142h88v-212h-533z" />
<glyph unicode="&#xf703;" d="M-874 1012v70h358q-2 3 -5 8.5t-5.5 13.5t-4 16t-1.5 14q0 26 9.5 49t26 40t38.5 27t48 10t49 -10t40 -27t27 -40t10 -49t-10 -48t-27 -38.5t-40 -26t-49 -9.5h-464zM-469 1134q0 -12 5 -23t13.5 -19t18.5 -12q10 -5 22 -5q13 0 24.5 4.5t20.5 12.5t14 19t5 23 q0 13 -5 24.5t-14 19.5t-20 13t-25 5q-12 0 -22 -5t-18.5 -13t-13.5 -19.5t-5 -24.5z" />
<glyph unicode="&#xf704;" d="M-878 1012v70h333v142h78v-142h84v142h78v-212h-573z" />
<glyph unicode="&#xf705;" d="M-471 1012v254h88v-254h-88zM-471 1012v254h88v-254h-88z" />
<glyph unicode="&#xf706;" d="M-706 1012v65q10 0 20 2q8 1 18 3t19 4q8 2 17.5 6t17.5 12t13 20t5 31q0 28 -19.5 43.5t-58.5 11.5v74q36 0 65 -7t50 -21t32 -36t11 -54q0 -22 -10 -44t-25 -38h275v-72h-430z" />
<glyph unicode="&#xf707;" d="M-778 1140q0 30 8 54t21 41t29 29.5t32 21.5q7 3 15 6t16.5 3.5t18.5 -3t20 -12.5l71 -64l59 64q8 8 18 11.5t19 3t17 -3t14 -5.5q17 -10 33.5 -23t29.5 -30t21 -40t8 -53v-60h117v-68h-195v128q0 22 -5.5 37t-13 24.5t-16.5 14.5q-9 4 -13 6l-62 -67q-6 -8 -14.5 -11.5 t-16.5 -3.5q-6 0 -13 4q-8 5 -14 11l-73 67q-7 -2 -16 -6t-17.5 -12.5t-14 -23t-5.5 -35.5q0 -13 5 -25t15 -22t25 -15.5t35 -5.5v-71h-13q-31 0 -57.5 11t-46 29.5t-30.5 43t-11 50.5z" />
<glyph unicode="&#xf708;" d="M-620 1110v72h120v110h80v-110h121v-72h-121v-106h-80v106h-120z" />
<glyph unicode="&#xf709;" d="M-545 1012q0 46 11.5 73t29.5 42.5t40 20.5t44 5h129v-69h-129q-16 0 -25 -4.5t-14 -13.5t-6.5 -22.5t-1.5 -31.5h-78z" />
<glyph unicode="&#xf70a;" d="M-211 1012v254h88v-254h-88z" />
<glyph unicode="&#xf70b;" d="M-496 1012v65q10 0 20 2q8 1 18 3q12 2 20 4t17.5 6t17 12t13 20t5.5 31q0 28 -19.5 43.5t-58.5 11.5v74q36 0 65.5 -7t50 -21t31.5 -36t11 -54q0 -22 -9 -44q-10 -22 -26 -38h289v-72h-445z" />
<glyph unicode="&#xf70c;" d="M-649 1140q0 30 8.5 54t21.5 41t29 29.5t31 21.5q7 3 15 6t17 3.5t18 -3t19 -12.5l72 -64l60 64q8 8 17 11.5t18.5 3t18 -3t13.5 -5.5q17 -10 33.5 -23t29.5 -30t21.5 -40t8.5 -53v-60h170v-68h-248v128q0 22 -6 37t-14 24.5t-16 14.5q-8 4 -14 6l-61 -67 q-6 -8 -14.5 -11.5t-16.5 -3.5q-6 0 -13 4.5t-13 10.5l-74 67q-7 -2 -16.5 -6t-17.5 -12.5t-14 -23t-6 -35.5q0 -13 5.5 -25t16 -22t25.5 -15.5t33 -5.5v-71h-12q-30 0 -57 11t-46 29.5t-30.5 43t-11.5 50.5z" />
<glyph unicode="&#xf70d;" d="M-326 1118v72h121v110h80v-110h121v-72h-121v-106h-80v106h-121z" />
<glyph unicode="&#xf70e;" d="M-346 1012q0 46 11.5 73t29.5 42.5t40.5 20.5t43.5 5h176v-69h-176q-16 0 -25 -4.5t-14 -13.5t-6.5 -22.5t-1.5 -31.5h-78z" />
<glyph unicode="&#xf70f;" horiz-adv-x="1376" d="M58 620q62 108 151.5 162t212.5 54q86 0 150 -21t106 -62t63 -100t21 -135v-202q0 -52 8 -98t31 -80t62 -53t101 -19t101 19t61.5 53t31.5 80q8 46 8 98v512h88v-531q0 -75 -19.5 -132.5t-56 -96t-90.5 -58.5t-124 -20q-69 0 -122.5 20t-90.5 58.5t-56 96t-19 132.5v207 q0 70 -17 118.5t-50 79t-80 44.5t-109 14q-36 0 -71.5 -6t-69 -22t-64.5 -43t-55 -71l59 -94v-334q0 -26 3 -46t12.5 -35t27 -23t47.5 -8h59v-78h-75q-43 0 -73.5 13t-50 37t-28 59t-8.5 79v324z" />
<glyph unicode="&#xf710;" d="M-578 1153h92q0 -18 2 -31.5t7 -22.5t15 -13t26 -4h466v-70h-482q-22 0 -44 6t-40 21.5t-30 43t-12 70.5z" />
<glyph unicode="&#xf711;" d="M-557 1122q0 28 10.5 52t28.5 42t42 29t52 11q27 0 50.5 -11t41.5 -29t28.5 -42t10.5 -52q0 -27 -10.5 -50.5t-28.5 -41.5t-41.5 -28.5t-50.5 -10.5q-28 0 -52 10.5t-42 28.5t-28.5 41.5t-10.5 50.5zM-492 1122q0 -14 5.5 -26t15 -20.5t21.5 -13.5t26 -5t26 5t21.5 13.5 t15 20.5t5.5 26t-5.5 27t-15 22t-21.5 14t-26 5t-26 -5t-21.5 -14t-15 -22t-5.5 -27z" />
<glyph unicode="&#xf712;" d="M-803 1157q0 30 11.5 58.5t33.5 51.5t53 38t70 16h365v-67h-352q-24 0 -43 -10.5t-32 -25t-19.5 -31.5t-6.5 -30q0 -14 3.5 -29t11.5 -28t19 -23.5t25 -17.5l84 75q11 8 24.5 8t25.5 -8l88 -75q14 6 25 14.5t17 21.5t6 29q0 18 -4 40h78q8 -36 1 -67t-25 -55t-46 -40 q-26 -17 -60 -23l-105 92l-101 -92q-32 9 -58.5 24t-46 37t-31 51t-11.5 66z" />
<glyph unicode="&#xf713;" d="M-390 1331v172h84v-172h-84z" />
<glyph unicode="&#xf714;" d="M-545 1333v66q11 -1 21 1q8 1 18 2.5t18 4.5q8 2 18 6t18 12t13 20.5t5 30.5q0 28 -20 43.5t-58 12.5v74q36 0 65 -7t50 -21t32 -37t11 -54q0 -22 -10 -44.5t-25 -37.5h289v-72h-445z" />
<glyph unicode="&#xf715;" d="M-758 1462q0 30 8 53.5t21.5 41t29.5 29.5q15 12 31 22q7 3 15.5 5.5t17 3t18 -3t19.5 -11.5l72 -64l59 64q8 8 17.5 11t18.5 3t17 -3t14 -5q17 -10 33.5 -23t29.5 -30t21.5 -40t8.5 -53v-61h186v-68h-264v129q0 22 -5.5 37t-13.5 24t-16.5 14t-13.5 7l-62 -68 q-6 -8 -14 -11t-16 -3q-6 0 -13.5 4t-13.5 10l-73 68q-7 -2 -16.5 -6t-17.5 -13t-14 -23t-6 -36q0 -13 5 -25t15.5 -21.5t25 -15t34.5 -5.5v-72h-12q-31 0 -57.5 11t-46.5 29.5t-31 43.5t-11 51z" />
<glyph unicode="&#xf716;" d="M-506 1438v72h121v110h80v-110h121v-72h-121v-107h-80v107h-121z" />
<glyph unicode="&#xf717;" d="M-389 1231q0 45 11.5 73t29.5 43t40 20t44 5h139v-70h-139q-16 0 -25 -4t-14 -13t-7 -22t-2 -32h-77z" />
<glyph unicode="&#xf718;" d="M-299 -291h39q38 0 64.5 -5.5t42.5 -21.5t23 -44t7 -74v-113h-88v111q0 24 -3 38t-10 21.5t-18.5 10t-27.5 2.5h-25z" />
<glyph unicode="&#xf719;" d="M-502 -293h52q29 0 48.5 -5.5t30.5 -18t16 -32.5q5 -21 5 -49v-10q0 -12 3 -24t11.5 -23t22 -17.5t35.5 -6.5t35 6.5t21 17.5t10 23q3 12 3 24v115h86v-115q0 -32 -11.5 -58t-32.5 -45t-49 -29q-28 -11 -62 -11q-36 0 -65 10.5t-49 29.5t-31 45t-11 58q0 24 -9 33t-30 9 h-27z" />
<glyph unicode="&#xf71a;" d="M-260 -354q0 14 5 26t14.5 21t22 15t26.5 6t26 -6t21 -15t14.5 -21t5.5 -26t-5.5 -26t-14.5 -21.5t-21 -15t-26 -5.5t-26.5 5.5t-22 15t-14.5 21.5t-5 26z" />
<glyph unicode="&#xf71d;" horiz-adv-x="1100" d="M74 828h90l102 -701l244 701h70l244 -701l75 512q8 56 -20 83q-29 28 -95 30v76h70q28 0 49 7t36 19.5t25 30t15 39.5l19 67h90l-27 -94q-8 -28 -20 -48.5t-28 -36.5t-35.5 -27t-41.5 -19q31 -25 43.5 -57.5t5.5 -67.5l-105 -641h-88l-247 684l-248 -684h-90z" />
<glyph unicode="&#xf881;" horiz-adv-x="1489" d="M62 620l75 -108v-324q0 -44 9 -79t28.5 -59t49.5 -37t73 -13h75v78h-58q-30 0 -48 8t-27.5 23t-12.5 35t-3 46v334l-65 100q27 38 58.5 64t66.5 42t71 23t70 7q60 0 108 -14t81 -43t50 -75t17 -110v-827h86v827q0 76 -21 135t-63 100t-106 62t-150 21q-123 0 -213 -54 q-89 -54 -151 -162zM884 725q32 52 91 81.5t141 29.5q62 0 109 -18t78 -52t47 -83t16 -111v-881h-86v877q0 44 -8.5 79t-28 60t-50.5 39t-77 14q-57 0 -100.5 -21t-63.5 -59z" />
<glyph unicode="&#xf882;" horiz-adv-x="1526" d="M70 78q40 -2 61 10.5t30 32.5t10 43.5t1 44.5v303l-76 108q61 108 151.5 162t213.5 54q86 0 149.5 -21t106.5 -62t64 -100t22 -135v-825h-88v825q0 65 -18.5 111t-52 75.5t-81 42.5t-104.5 13q-34 0 -69.5 -7t-69.5 -22t-66 -41q-34 -26 -62 -64l68 -102v-336 q0 -42 -9 -72.5t-23 -51.5t-33 -33.5t-38 -19.5t-38 -9t-35 -2zM922 725q32 52 90.5 81.5t140.5 29.5q62 0 109 -18t78.5 -52t47 -83t15.5 -111v-881h-86v877q0 44 -8.5 79t-28 60t-51 39t-76.5 14q-58 0 -100.5 -21t-63.5 -59z" />
<glyph d="M-545 1012q0 40 6.5 66t18 41t27 21.5t34.5 6.5q0 29 11.5 44.5t29.5 22t38 7.5t38 1h60v-69h-50q-17 0 -26.5 -2.5t-14.5 -9.5t-7 -21q-1 -12 -1 -34h-51q-9 0 -14.5 -6t-8.5 -16t-3 -24q-1 -12 -1 -28h-86z" />
<glyph horiz-adv-x="612" d="M-557 1122q0 28 10.5 52t28.5 42t42 29t52 11q27 0 50.5 -11t41.5 -29t28.5 -42t10.5 -52q0 -27 -10.5 -50.5t-28.5 -41.5t-41.5 -28.5t-50.5 -10.5q-28 0 -52 10.5t-42 28.5t-28.5 41.5t-10.5 50.5zM-492 1122q0 -14 5.5 -26t15 -20.5t21.5 -13.5t26 -5t26 5t21.5 13.5 t15 20.5t5.5 26t-5.5 27t-15 22t-21.5 14t-26 5t-26 -5t-21.5 -14t-15 -22t-5.5 -27zM8 725q32 52 91 81.5t141 29.5q62 0 109 -18t78 -52t47 -83t16 -111v-572h-86v568q0 44 -9 79t-28 60t-51 39q-30 14 -76 14q-57 0 -100.5 -21t-63.5 -59z" />
<glyph horiz-adv-x="612" d="M-557 1122q0 28 10.5 52t28.5 42t42 29t52 11q27 0 50.5 -11t41.5 -29t28.5 -42t10.5 -52q0 -27 -10.5 -50.5t-28.5 -41.5t-41.5 -28.5t-50.5 -10.5q-28 0 -52 10.5t-42 28.5t-28.5 41.5t-10.5 50.5zM-492 1122q0 -14 5.5 -26t15 -20.5t21.5 -13.5t26 -5t26 5t21.5 13.5 t15 20.5t5.5 26t-5.5 27t-15 22t-21.5 14t-26 5t-26 -5t-21.5 -14t-15 -22t-5.5 -27zM8 725q32 52 91 81.5t141 29.5q62 0 109 -18t78 -52t47 -83t16 -111v-572h-86v568q0 44 -9 79t-28 60t-51 39q-30 14 -76 14q-57 0 -100.5 -21t-63.5 -59z" />
<glyph d="M-676 1012v70h553v-70h-553z" />
<glyph d="M-676 1012v70h465v142h88v-212h-553z" />
<glyph d="M-676 1012v70h330q-6 8 -11 23t-5 29q0 26 9.5 49t26 40t38.5 27t48 10t49 -10t40 -27t27 -40t10 -49t-10 -48t-27 -38.5t-40 -26t-49 -9.5h-436zM-299 1134q0 -12 5 -23t13.5 -19t18.5 -12q10 -5 22 -5q13 0 24.5 4.5t20.5 12.5t14 19t5 23q0 13 -5 24.5t-14 19.5 t-20 13t-25 5q-12 0 -22 -5t-18.5 -13t-13.5 -19.5t-5 -24.5z" />
<glyph d="M-676 1012v70h314v142h78v-142h84v142h77v-212h-553z" />
<glyph d="M-1000 1012v70h764v-70h-764z" />
<glyph d="M-1000 1012v70h676v142h88v-212h-764z" />
<glyph d="M-1000 1012v70h539q-2 3 -5 8.5t-5.5 13.5t-4 16t-1.5 14q0 26 9.5 49t26.5 40t39 27t48 10t49 -10t39.5 -27t26 -40t9.5 -49t-9.5 -48t-26 -38.5t-39.5 -26t-49 -9.5h-646zM-414 1134q0 -12 5 -23t13.5 -19t19 -12.5t22.5 -4.5q13 0 24.5 4.5t20 12.5t13.5 19t5 23 q0 13 -5 24.5t-13.5 19.5t-20.5 13t-24 5t-22.5 -5t-19 -13t-13.5 -19.5t-5 -24.5z" />
<glyph d="M-1000 1012v70h525v142h77v-142h84v142h78v-212h-764z" />
<glyph d="M-320 1331v172h84v-172h-84z" />
<glyph d="M-475 1331v65q10 0 20 2q8 1 18.5 2.5t18.5 4.5q8 2 18 6t17.5 12t13 20.5t5.5 30.5q0 28 -20 43.5t-58 12.5v74q36 0 65 -7t50 -21t32 -37t11 -54q0 -22 -10 -44.5t-26 -37.5h256v-72h-411z" />
<glyph d="M-670 1460q0 30 8.5 53.5t21.5 41t29 29.5q15 12 31 22q7 3 15.5 5.5t17 3t18 -3t19.5 -11.5l72 -64l59 64q8 8 17.5 11t18.5 3t17 -3t14 -5q17 -10 33.5 -23t30 -30t21.5 -40t8 -53v-61h170v-68h-248v129q0 22 -5.5 37t-13.5 24t-16.5 14t-13.5 7l-62 -68q-6 -8 -14 -11 t-16 -3q-6 0 -13 4t-14 10l-73 68q-7 -2 -16.5 -6.5t-17 -14t-13 -24.5t-5.5 -37q0 -26 21 -43t57 -18v-74h-12q-30 0 -57 11t-46.5 29.5t-31 43t-11.5 51.5z" />
<glyph d="M-438 1438v72h120v110h80v-110h122v-72h-122v-107h-80v107h-120z" />
<glyph d="M-987 1012v70h864v-70h-864z" />
<glyph d="M-987 1012v70h776v142h88v-212h-864z" />
<glyph d="M-987 1012v70h641q-6 8 -11 23t-5 29q0 26 9.5 49t26 40t38.5 27t48 10t49 -10t40 -27t27 -40t10 -49t-10 -48t-27 -38.5t-40 -26t-49 -9.5h-747zM-299 1134q0 -12 5 -23t13.5 -19t18.5 -12q10 -5 22 -5q13 0 24.5 4.5t20.5 12.5t14 19t5 23q0 13 -5 24.5t-14 19.5 t-20 13t-25 5q-12 0 -22 -5t-18.5 -13t-13.5 -19.5t-5 -24.5z" />
<glyph d="M-987 1012v70h625v142h78v-142h84v142h77v-212h-864z" />
<glyph d="M-207 1281v222h84v-222h-84z" />
<glyph d="M-362 1281v65q10 0 20 2q8 1 18 2.5t19 4.5q8 2 17.5 6t17.5 12t13 20.5t5 30.5q0 28 -20 44q-20 15 -58 12v74q36 0 65 -7t50 -21t32 -37t11 -54q0 -22 -10 -44.5t-25 -37.5h256v-72h-411z" />
<glyph d="M-555 1410q0 30 8.5 53.5t21.5 41t29 29.5t31 22q7 3 15 5.5t17 3t18 -3t19 -11.5l72 -64l60 64q8 8 17 11t19 3t18 -3t14 -5q17 -10 33.5 -23t29.5 -30t21 -40t8 -53v-61h170v-68h-248v129q0 22 -6 37t-14 24t-16 14t-14 7l-61 -68q-6 -8 -14.5 -11t-16.5 -3q-6 0 -13 4 t-13 10l-74 68q-7 -2 -15.5 -6.5t-16.5 -14t-13.5 -24.5t-5.5 -37q0 -26 21 -43q20 -17 56 -18v-74q-36 0 -64.5 11t-49 29.5t-32 43t-11.5 51.5z" />
<glyph d="M-324 1388v72h121v110h80v-110h121v-72h-121v-107h-80v107h-121z" />
<glyph d="M-782 1012v70h634v-70h-634z" />
<glyph d="M-782 1012v70h546v142h88v-212h-634z" />
<glyph d="M-346 971q0 45 11.5 73t29.5 43t40.5 20t43.5 5h151v-70h-141q-17 0 -27 -4t-15 -13t-6 -22t-1 -32h-86z" />
<glyph horiz-adv-x="743" d="M108 256v316q0 58 19 107t54 84t83 55t106 20t107 -20t83.5 -55t53.5 -84t19 -107v-316q0 -58 -19 -107t-53.5 -84t-82.5 -55q-50 -20 -108 -20t-106 20t-83 55t-54 84t-19 107zM190 264q0 -42 12 -79t35 -64t57 -42q32 -15 76 -15t78 15t57 42t34.5 64t11.5 79v299 q0 42 -11.5 79t-34.5 64t-57 42q-34 16 -78 16t-77 -15.5t-56 -42.5t-35 -63.5t-12 -79.5v-299z" />
<glyph horiz-adv-x="641" d="M142 578v98l182 156h78v-832h-82v733z" />
<glyph horiz-adv-x="743" d="M98 0v70l356 336q42 42 67.5 90t25.5 102q0 36 -14.5 68t-39 56t-58 38t-73.5 14q-37 0 -69.5 -14t-57 -38t-39 -58t-14.5 -74h-82q0 53 19.5 99.5t54 81.5t82.5 55t106 20q60 0 109.5 -19.5t84 -53t52.5 -78.5t18 -97q0 -37 -8 -69.5t-22.5 -61.5t-35 -56t-46.5 -53 l-305 -284h445v-74h-556z" />
<glyph horiz-adv-x="743" d="M90 88h82q4 -50 22 -85t46 -57t63 -32t72 -10q42 0 78.5 13.5t63.5 40t43 64.5q16 36 16 84t-12 85t-37 63t-65 40q-40 13 -94 13h-22v76h22q95 0 142 48.5t47 140.5q0 47 -14.5 82.5t-39.5 60t-59 37.5q-34 12 -72 12q-42 0 -74 -12.5t-56 -36t-38 -56.5 q-16 -33 -20 -73h-82q6 60 29 106.5t59 79t82 49.5t100 17q59 0 108.5 -19t84.5 -54t54.5 -84t19.5 -109q0 -74 -30.5 -131t-96.5 -91q74 -31 110 -92.5t36 -151.5q0 -68 -22 -119t-60 -86t-89.5 -53t-111.5 -18t-110.5 15.5t-88.5 47.5t-60.5 80.5t-25.5 114.5z" />
<glyph horiz-adv-x="743" d="M62 0v70l376 760h86l-372 -756h325v311h82v-311h131v-74h-131v-209h-82v209h-415z" />
<glyph horiz-adv-x="743" d="M108 66h82q11 -78 54 -121q42 -43 124 -43q39 0 73.5 13t58.5 36q21 20 32.5 46t16.5 54t6.5 57t1.5 56q0 30 -2.5 60.5t-9.5 59t-19 52.5t-31 42.5t-47 29t-67 10.5q-33 0 -61.5 -7t-51 -20t-38.5 -32t-23 -43h-72v512h481v-74h-407v-324q32 34 77.5 49t102.5 15 q54 0 95.5 -17t72.5 -45q26 -27 42 -59t25 -66.5t12 -71t3 -71.5q0 -36 -2 -71.5t-10 -69t-23 -65.5q-16 -30 -43 -58q-36 -36 -82.5 -54t-110.5 -18q-62 0 -110 17t-82 51q-28 30 -46 71t-22 99z" />
<glyph horiz-adv-x="743" d="M66 297q0 27 3 53t10 53.5t19 57t31 63.5l271 510h86l-238 -442q26 8 60.5 14t68.5 6q72 0 127.5 -23t94.5 -65t59 -98t20 -121q0 -66 -21 -123t-60 -99.5t-96 -67.5t-131 -25q-73 0 -129.5 23t-95.5 64t-59 97t-20 123zM150 301q0 -52 15 -96.5t44 -77.5t70 -51t91 -18 q51 0 92 18t70 51t44.5 77.5t15.5 96.5q0 48 -13.5 91.5t-40.5 76.5t-67.5 52t-95.5 19q-51 0 -92.5 -17t-71 -48t-45.5 -75t-16 -99z" />
<glyph horiz-adv-x="743" d="M88 598v230h580v-66l-390 -969h-86l388 967h-410v-162h-82z" />
<glyph horiz-adv-x="743" d="M56 280q0 46 12.5 85t35 71.5t54.5 58t70 43.5q-72 40 -110 97t-38 139q0 58 21 107.5t59 85t91 55.5t117 20q65 0 119.5 -20t93.5 -55.5t61 -85t22 -107.5q0 -78 -39 -137t-109 -99q39 -18 70.5 -43.5t53.5 -58t34 -71.5t12 -85q0 -62 -24 -115t-66 -91t-100 -60 q-60 -22 -128 -22q-66 0 -123 22t-99 60t-66 91t-24 115zM140 284q0 -45 17.5 -85t48 -70.5t72.5 -47.5t90 -17q50 0 93 17t74 47.5t49 70.5t18 85q0 47 -18 87.5t-49 70.5t-74 47t-93 17q-48 0 -90 -17t-72.5 -47t-48 -70t-17.5 -88zM162 774q0 -44 15 -81t42 -63.5t65 -41 t84 -14.5q48 0 87 14.5t67 41t43 63.5t15 81t-15 81t-43 64t-67 42.5t-87 15.5q-46 0 -84 -15.5t-65 -42.5t-42 -64t-15 -81z" />
<glyph horiz-adv-x="743" d="M66 522q0 66 20 124t59 100t96 67t129 25q74 0 131.5 -23t97 -64t59.5 -97t20 -122q0 -27 -3 -53.5t-11 -54t-20 -57t-30 -62.5l-272 -510h-84l238 443q-26 -8 -61 -14.5t-69 -6.5q-72 0 -127.5 23.5t-94 64.5t-58.5 97t-20 120zM150 528q0 -48 13.5 -91.5t41 -76 t68.5 -52t95 -19.5q51 0 92.5 17t70.5 48.5t45 75.5t16 98q0 52 -15 97t-44 77.5t-70 51t-93 18.5q-50 0 -90.5 -18.5t-69.5 -51t-44.5 -77.5t-15.5 -97z" />
<glyph d="M-635 1172q0 30 11.5 58.5t33.5 51t53 37.5t70 17h359v-66h-346q-24 0 -43 -10.5t-32 -26t-19.5 -32.5t-6.5 -29q0 -14 3.5 -29t11.5 -28t19 -24t25 -18l84 67q10 8 24 8t26 -8l88 -69q14 6 25 15.5t17 22t6 29.5q0 18 -4 40h78q8 -36 1 -67t-25 -55t-46 -40 q-26 -16 -60 -22l-105 83l-101 -83q-32 9 -58.5 23.5t-46 36.5t-31 51t-11.5 67z" />
<glyph d="M-207 1250v253h84v-253h-84z" />
<glyph d="M-362 1229v65q10 0 20 2q8 1 18 2.5t19 3.5q8 2 17.5 6t17.5 12t13 21t5 31q0 28 -20 43t-58 13v73q36 0 65 -6.5t50 -21t32 -37t11 -54.5q0 -22 -10 -44t-25 -38h256v-71h-411z" />
<glyph d="M-555 1358q0 30 8.5 53t21.5 40.5t29 30t31 21.5q7 3 15 6t17 3t18 -3t19 -12l72 -63l60 63q8 8 17 11.5t19 3.5t18 -3t14 -6q17 -10 33.5 -22.5t29.5 -30t21 -40t8 -52.5v-62h170v-67h-248v129q0 22 -6 36.5t-14 24t-16 14.5t-14 7l-61 -68q-6 -8 -14.5 -11t-16.5 -3 q-6 0 -13 4t-13 10l-74 68q-7 -2 -16 -6t-17.5 -13t-14 -23t-5.5 -36q0 -13 5.5 -25.5t15.5 -21.5t25 -15t33 -6v-72h-12q-31 0 -57.5 11t-45.5 30t-30.5 43.5t-11.5 51.5z" />
<glyph d="M-324 1336v71h121v111h80v-111h121v-71h-121v-107h-80v107h-121z" />
<glyph d="M-578 1153h92q0 -18 2 -31.5t7 -22.5t15 -13t26 -4h528v-70h-544q-22 0 -44 6t-40 21.5t-30 43t-12 70.5z" />
<glyph d="M-393 1231v254h88v-254h-88z" />
<glyph d="M-729 1252v65q10 -1 20 1q8 1 18.5 2.5t18.5 4.5q8 2 18 6t18 12t13 20.5t5 30.5q0 28 -20 43.5t-58 12.5v74q36 0 65 -7t50 -21t32 -37t11 -54q0 -22 -10 -44.5t-26 -37.5h269v-71h-424z" />
<glyph d="M-830 1360q0 30 8.5 53.5t21.5 41t29 29.5q15 12 31 22q7 3 15.5 5.5t17 3t18 -3t19.5 -12.5l72 -63l60 63q8 8 17 11.5t18.5 3.5t18 -3t13.5 -5q17 -10 33.5 -23t29.5 -30.5t21 -40t8 -52.5v-62h78v-67h-155v129q0 22 -6 36.5t-14 24t-16 14.5t-14 7l-62 -68 q-6 -8 -14 -11t-16 -3q-6 0 -13 4t-13 10l-74 68q-7 -2 -16.5 -6t-17.5 -13t-14 -23t-6 -36q0 -13 5.5 -25.5t16 -21.5t24.5 -15t34 -6v-72h-12q-31 0 -57.5 11t-46 30t-31 43.5t-11.5 51.5z" />
<glyph d="M-516 1336v71h120v111h80v-111h122v-71h-122v-107h-80v107h-120z" />
<glyph d="M-460 1331v172h84v-172h-84z" />
<glyph d="M-576 1438v72h121v110h80v-110h121v-72h-121v-107h-80v107h-121z" />
</font>
</defs>
</svg>
