<svg xmlns="http://www.w3.org/2000/svg">
<defs>
<font id="DBOzoneX-Medium" horiz-adv-x="0" >
  <font-face 
    font-family="DB Ozone X"
    font-weight="500"
    font-stretch="normal"
    units-per-em="1000"
    panose-1="2 0 5 6 9 0 0 2 0 4"
    ascent="800"
    descent="-200"
    x-height="380"
    cap-height="503"
    bbox="-505 -356.004 863.002 823"
    underline-thickness="20"
    underline-position="-113"
    unicode-range="U+0020-U+F882"
  />
<missing-glyph horiz-adv-x="347" 
d="M353 335l0.000976562 -12h5c4 0 6 2.33301 6 7c0 0.666992 -0.333008 1.66699 -1 3s-2.33398 2 -5.00098 2h-5zM356.001 322h-3v-11h-4v28h9c6.66699 0 10 -3 10 -9c0 -3.33301 -0.833008 -5.5 -2.5 -6.5s-3.5 -1.5 -5.5 -1.5l8 -11h-4zM358.001 306
c7.33301 0 12.167 2 14.5 6s3.5 7.66699 3.5 11c0 6 -1.5 10.833 -4.5 14.5s-7.5 5.5 -13.5 5.5s-10.667 -1.83301 -14 -5.5s-5 -8.5 -5 -14.5c0 -4.66699 1.66699 -8.66699 5 -12s8 -5 14 -5zM358.002 346c7.33301 0 12.666 -2.33301 15.999 -7s5 -10 5 -16
c0 -4.66699 -1.66699 -9 -5 -13s-8.66602 -6 -15.999 -6c-6 0 -11 2 -15 6s-6 8.33301 -6 13c0 6 2 11.333 6 16s9 7 15 7zM168.002 265c8.66699 -0.666992 19.166 -1.83203 31.499 -3.49902s24.5 -3.66699 36.5 -6s22.833 -5 32.5 -8s17.5 -6.5 23.5 -10.5
c-12 22 -29.667 39 -53 51s-47.333 18 -72 18c-18.667 0 -36.667 -3.66699 -54 -11s-31.666 -18.333 -42.999 -33c10.667 1.33301 21 2.16602 31 2.49902s20 0.5 30 0.5h18.5h18.5zM314.001 330.002l0.00195312 -118.001c-26.667 8 -57.334 15 -92.001 21s-71 9 -109 9
c-26.667 0 -53 -1.66699 -79 -5c4 12.667 9.5 24.667 16.5 36s16.167 21.333 27.5 30s24.333 15.334 39 20.001s31 7 49 7c16.667 0 32.167 -1.83301 46.5 -5.5s26.666 -8.16699 36.999 -13.5s19 -11.5 26 -18.5s12.5 -13.167 16.5 -18.5l-0.5 6
c-0.333008 4 -0.5 9.16699 -0.5 15.5v19.5v15h23zM128.003 107.001c0 4 -1.5 7.16699 -4.5 9.5s-6.16699 3.5 -9.5 3.5c-4 0 -7.5 -1.16699 -10.5 -3.5s-4.5 -5.5 -4.5 -9.5c0 -5.33301 1.5 -8.83301 4.5 -10.5s6.5 -2.5 10.5 -2.5c3.33301 0 6.5 0.833008 9.5 2.5

<glyph glyph-name="plusminus" unicode="&#x2b;&#x2d;" horiz-adv-x="413" 
d="M255 224v-128h-72v128h-126v67h126v128h72v-128h126v-67h-126zM381 68v-68h-324v68h324z" />
    <glyph glyph-name="ellipsis" unicode="&#x2e;&#x2e;&#x2e;" horiz-adv-x="587" 
d="M432 44c0 14.667 5 27 15 37s22.333 15 37 15s27 -5 37 -15s15 -22.333 15 -37s-5 -27 -15 -37s-22.333 -15 -37 -15s-27 5 -37 15s-15 22.333 -15 37zM242 44c0 14.667 4.83301 27 14.5 37s21.834 15 36.501 15s27 -5 37 -15s15 -22.333 15 -37s-5 -27 -15 -37
s-22.333 -15 -37 -15s-26.834 5 -36.501 15s-14.5 22.333 -14.5 37zM51 44c0 14.667 4.83301 27 14.5 37s21.834 15 36.501 15c15.333 0 27.833 -5 37.5 -15s14.5 -22.333 14.5 -37s-4.83301 -27 -14.5 -37s-22.167 -15 -37.5 -15c-14.667 0 -26.834 5 -36.501 15
s-14.5 22.333 -14.5 37z" />
    <glyph glyph-name="lessequal" unicode="&#x3c;&#x3d;" horiz-adv-x="432" 
d="M395 110l-357 138v59l357 139v-78l-239 -90l239 -90v-78zM38 2v71h357v-71h-357z" />
    <glyph glyph-name="greaterequal" unicode="&#x3e;&#x3d;" horiz-adv-x="432" 
d="M38 188l238 90l-238 90v78l357 -139v-59l-357 -138v78zM395 2v71h-357v-71h357z" />
    <glyph glyph-name="fongmanfunnuthai" unicode="&#xe4f;&#x22;" horiz-adv-x="511" 
d="M161 456l-6 140h76l-6 -140h-64zM282 456l-6 140h76l-6 -140h-64zM99 200c0 -21.333 4.16699 -41.333 12.5 -60s19.5 -35 33.5 -49s30.333 -25.167 49 -33.5s38.667 -12.5 60 -12.5c22 0 42.5 4.16699 61.5 12.5s35.5 19.5 49.5 33.5s25.167 30.333 33.5 49
s12.5 38.667 12.5 60c0 22 -4.16699 42.5 -12.5 61.5s-19.5 35.5 -33.5 49.5s-30.5 25.167 -49.5 33.5s-39.5 12.5 -61.5 12.5c-21.333 0 -41.333 -4.16699 -60 -12.5s-35 -19.5 -49 -33.5s-25.167 -30.5 -33.5 -49.5s-12.5 -39.5 -12.5 -61.5zM139 200c0 16 3 31 9 45
s14.333 26.333 25 37s22.834 19 36.501 25s28.5 9 44.5 9s31 -3 45 -9s26.333 -14.333 37 -25s19 -23 25 -37s9 -29 9 -45s-3 -30.833 -9 -44.5s-14.333 -25.834 -25 -36.501s-23 -19 -37 -25s-29 -9 -45 -9s-30.833 3 -44.5 9s-25.834 14.333 -36.501 25
s-19 22.834 -25 36.501s-9 28.5 -9 44.5zM35 200c0 30.667 5.66699 59.5 17 86.5s27 50.5 47 70.5s43.333 35.667 70 47s55 17 85 17c30.667 0 59.5 -5.66699 86.5 -17s50.5 -27 70.5 -47s35.667 -43.5 47 -70.5s17 -55.833 17 -86.5c0 -30 -5.66699 -58.333 -17 -85
s-27 -50 -47 -70s-43.5 -35.667 -70.5 -47s-55.833 -17 -86.5 -17c-30 0 -58.333 5.66699 -85 17s-50 27 -70 47s-35.667 43.333 -47 70s-17 55 -17 85zM201 200c0 -14.667 5.16699 -27.167 15.5 -37.5s22.833 -15.5 37.5 -15.5c15.333 0 28.166 5.16699 38.499 15.5
s15.5 22.833 15.5 37.5c0 15.333 -5.16699 28.166 -15.5 38.499s-23.166 15.5 -38.499 15.5c-14.667 0 -27.167 -5.16699 -37.5 -15.5s-15.5 -23.166 -15.5 -38.499z" />
    <glyph glyph-name="dochadaphinthuthai" unicode="&#xe0e;&#xe3a;" horiz-adv-x="463" 
d="M155 101c0 -23.333 -4.33496 -41.6699 -13.002 -55.0029s-19.167 -23.5 -31.5 -30.5s-25.333 -11.5 -39 -13.5s-25.5 -3 -35.5 -3l-15 72c14 -0.666992 24.5 0.166016 31.5 2.49902s12.167 5.5 15.5 9.5s5.16602 8.5 5.49902 13.5s0.5 9.5 0.5 13.5v129l-38 54
c46 76.667 111 115 195 115c60.667 0 105.834 -13.667 135.501 -41s44.834 -66.666 45.501 -117.999v-313c0 -12 -1.83301 -22.333 -5.5 -31s-7.83398 -16 -12.501 -22s-9.66699 -10.667 -15 -14s-9.33301 -5.66602 -12 -6.99902c-8 -3.33301 -17.667 -5.16602 -29 -5.49902
s-21.666 1.5 -30.999 5.5l-87 38c-2.66699 1.33301 -5 1.33301 -7 0l-103 -50l-45 54l127 61c9.33301 4.66699 17.166 7 23.499 7s14.833 -2.33301 25.5 -7l82 -35c1.33301 -0.666992 3 -0.5 5 0.5s3 3.16699 3 6.5v305c0 34.667 -8.66699 59.334 -26 74.001
s-42.333 22 -75 22c-17.333 0 -34.666 -3 -51.999 -9s-33.666 -16.667 -48.999 -32l26 -38v-158zM320.998 -243.004c0 14 4.83301 25.833 14.5 35.5s21.5 14.5 35.5 14.5s25.833 -4.83301 35.5 -14.5s14.5 -21.5 14.5 -35.5s-4.83301 -25.833 -14.5 -35.5
s-21.5 -14.5 -35.5 -14.5s-25.833 4.83301 -35.5 14.5s-14.5 21.5 -14.5 35.5z" />
    <glyph glyph-name="topatakphintuthai" unicode="&#xe0f;&#xe3a;" horiz-adv-x="464" 
d="M331 243c0 34.667 -8.66797 59.168 -26.001 73.501s-42.333 21.5 -75 21.5c-17.333 0 -34.666 -3 -51.999 -9s-33.666 -16.667 -48.999 -32l26 -37v-159c0 -23.333 -4.33301 -41.666 -13 -54.999s-19.167 -23.5 -31.5 -30.5s-25.333 -11.5 -39 -13.5s-25.5 -3 -35.5 -3
l-15 73c14 -0.666992 24.5 0.166016 31.5 2.49902s12.167 5.5 15.5 9.5s5.16602 8.33301 5.49902 13s0.5 9 0.5 13v129l-38 54c46 76.667 111 115 195 115c60.667 0 105.834 -13.667 135.501 -41s44.834 -66.666 45.501 -117.999v-317c0 -10 -1.83301 -19.833 -5.5 -29.5
s-8.83398 -18.334 -15.501 -26.001s-14.5 -13.834 -23.5 -18.501s-18.833 -7 -29.5 -7c-11.333 0 -22.333 3 -33 9l-60 33c-4 2 -7.66699 2 -11 0l-55 -33c-10.667 -6 -20.5 -8.5 -29.5 -7.5s-17.167 3.83301 -24.5 8.5l-103 71l68 39l58 -40
c4.66699 -3.33301 9.66699 -3.33301 15 0l50 31c9.33301 6 18.166 8.66699 26.499 8s16.833 -3.33398 25.5 -8.00098l59 -33c2 -1.33301 3.66699 -1.16602 5 0.500977s2 3.5 2 5.5v308zM320.999 -242.999c0 14 4.83301 25.833 14.5 35.5s21.5 14.5 35.5 14.5
s25.833 -4.83301 35.5 -14.5s14.5 -21.5 14.5 -35.5s-4.83301 -25.833 -14.5 -35.5s-21.5 -14.5 -35.5 -14.5s-25.833 4.83301 -35.5 14.5s-14.5 21.5 -14.5 35.5z" />
    <glyph glyph-name="dochadasarauthai" unicode="&#xe0e;&#xe38;" horiz-adv-x="464" 
d="M155 101c0 -23.333 -4.33496 -41.6699 -13.002 -55.0029s-19.167 -23.5 -31.5 -30.5s-25.333 -11.5 -39 -13.5s-25.5 -3 -35.5 -3l-15 72c14 -0.666992 24.5 0.166016 31.5 2.49902s12.167 5.5 15.5 9.5s5.16602 8.5 5.49902 13.5s0.5 9.5 0.5 13.5v129l-38 54
c46 76.667 111 115 195 115c60.667 0 105.834 -13.667 135.501 -41s44.834 -66.666 45.501 -117.999v-313c0 -12 -1.83301 -22.333 -5.5 -31s-7.83398 -16 -12.501 -22s-9.66699 -10.667 -15 -14s-9.33301 -5.66602 -12 -6.99902c-8 -3.33301 -17.667 -5.16602 -29 -5.49902
s-21.666 1.5 -30.999 5.5l-87 38c-2.66699 1.33301 -5 1.33301 -7 0l-103 -50l-45 54l127 61c9.33301 4.66699 17.166 7 23.499 7s14.833 -2.33301 25.5 -7l82 -35c1.33301 -0.666992 3 -0.5 5 0.5s3 3.16699 3 6.5v305c0 34.667 -8.66699 59.334 -26 74.001
s-42.333 22 -75 22c-17.333 0 -34.666 -3 -51.999 -9s-33.666 -16.667 -48.999 -32l26 -38v-158zM334.998 -283.004c0 8 -0.833008 12.998 -2.5 14.998s-4.83398 3 -9.50098 3h-30v70h35c15.333 0 28.333 -1.16699 39 -3.5s19.334 -6.66602 26.001 -12.999
s11.5 -15.166 14.5 -26.499s4.5 -26.333 4.5 -45v-72h-77v72z" />
    <glyph glyph-name="topataksarauthai" unicode="&#xe0f;&#xe38;" horiz-adv-x="464" 
d="M331 243c0 34.667 -8.66797 59.168 -26.001 73.501s-42.333 21.5 -75 21.5c-17.333 0 -34.666 -3 -51.999 -9s-33.666 -16.667 -48.999 -32l26 -37v-159c0 -23.333 -4.33301 -41.666 -13 -54.999s-19.167 -23.5 -31.5 -30.5s-25.333 -11.5 -39 -13.5s-25.5 -3 -35.5 -3
l-15 73c14 -0.666992 24.5 0.166016 31.5 2.49902s12.167 5.5 15.5 9.5s5.16602 8.33301 5.49902 13s0.5 9 0.5 13v129l-38 54c46 76.667 111 115 195 115c60.667 0 105.834 -13.667 135.501 -41s44.834 -66.666 45.501 -117.999v-317c0 -10 -1.83301 -19.833 -5.5 -29.5
s-8.83398 -18.334 -15.501 -26.001s-14.5 -13.834 -23.5 -18.501s-18.833 -7 -29.5 -7c-11.333 0 -22.333 3 -33 9l-60 33c-4 2 -7.66699 2 -11 0l-55 -33c-10.667 -6 -20.5 -8.5 -29.5 -7.5s-17.167 3.83301 -24.5 8.5l-103 71l68 39l58 -40
c4.66699 -3.33301 9.66699 -3.33301 15 0l50 31c9.33301 6 18.166 8.66699 26.499 8s16.833 -3.33398 25.5 -8.00098l59 -33c2 -1.33301 3.66699 -1.16602 5 0.500977s2 3.5 2 5.5v308zM333.999 -282.999c0 8 -0.833008 12.998 -2.5 14.998s-4.83398 3 -9.50098 3h-30v70h35
c15.333 0 28.333 -1.16699 39 -3.5s19.334 -6.66602 26.001 -12.999s11.5 -15.166 14.5 -26.499s4.5 -26.333 4.5 -45v-72h-77v72z" />
    <glyph glyph-name="dochadasarauuthai" unicode="&#xe0e;&#xe39;" horiz-adv-x="464" 
d="M155 101c0 -23.333 -4.33496 -41.6699 -13.002 -55.0029s-19.167 -23.5 -31.5 -30.5s-25.333 -11.5 -39 -13.5s-25.5 -3 -35.5 -3l-15 72c14 -0.666992 24.5 0.166016 31.5 2.49902s12.167 5.5 15.5 9.5s5.16602 8.5 5.49902 13.5s0.5 9.5 0.5 13.5v129l-38 54
c46 76.667 111 115 195 115c60.667 0 105.834 -13.667 135.501 -41s44.834 -66.666 45.501 -117.999v-313c0 -12 -1.83301 -22.333 -5.5 -31s-7.83398 -16 -12.501 -22s-9.66699 -10.667 -15 -14s-9.33301 -5.66602 -12 -6.99902c-8 -3.33301 -17.667 -5.16602 -29 -5.49902
s-21.666 1.5 -30.999 5.5l-87 38c-2.66699 1.33301 -5 1.33301 -7 0l-103 -50l-45 54l127 61c9.33301 4.66699 17.166 7 23.499 7s14.833 -2.33301 25.5 -7l82 -35c1.33301 -0.666992 3 -0.5 5 0.5s3 3.16699 3 6.5v305c0 34.667 -8.66699 59.334 -26 74.001
s-42.333 22 -75 22c-17.333 0 -34.666 -3 -51.999 -9s-33.666 -16.667 -48.999 -32l26 -38v-158zM224.998 -269.004c0 1.33301 -0.165039 2.66699 -0.498047 4s-1.83301 2 -4.5 2h-27v67h41c25.333 0 42.666 -5.16699 51.999 -15.5s14 -27.833 14 -52.5v-5
c0 -4 1.16699 -8 3.5 -12s7.16602 -6 14.499 -6s12 2 14 6s3 8 3 12v73h76v-73c0 -26 -8.66699 -47 -26 -63s-39.666 -24 -66.999 -24c-28.667 0 -51.334 8 -68.001 24s-25 37 -25 63z" />
    <glyph glyph-name="topataksarauuthai" unicode="&#xe0f;&#xe39;" horiz-adv-x="464" 
d="M331 243c0 34.667 -8.66797 59.168 -26.001 73.501s-42.333 21.5 -75 21.5c-17.333 0 -34.666 -3 -51.999 -9s-33.666 -16.667 -48.999 -32l26 -37v-159c0 -23.333 -4.33301 -41.666 -13 -54.999s-19.167 -23.5 -31.5 -30.5s-25.333 -11.5 -39 -13.5s-25.5 -3 -35.5 -3
l-15 73c14 -0.666992 24.5 0.166016 31.5 2.49902s12.167 5.5 15.5 9.5s5.16602 8.33301 5.49902 13s0.5 9 0.5 13v129l-38 54c46 76.667 111 115 195 115c60.667 0 105.834 -13.667 135.501 -41s44.834 -66.666 45.501 -117.999v-317c0 -10 -1.83301 -19.833 -5.5 -29.5
s-8.83398 -18.334 -15.501 -26.001s-14.5 -13.834 -23.5 -18.501s-18.833 -7 -29.5 -7c-11.333 0 -22.333 3 -33 9l-60 33c-4 2 -7.66699 2 -11 0l-55 -33c-10.667 -6 -20.5 -8.5 -29.5 -7.5s-17.167 3.83301 -24.5 8.5l-103 71l68 39l58 -40
c4.66699 -3.33301 9.66699 -3.33301 15 0l50 31c9.33301 6 18.166 8.66699 26.499 8s16.833 -3.33398 25.5 -8.00098l59 -33c2 -1.33301 3.66699 -1.16602 5 0.500977s2 3.5 2 5.5v308zM224.999 -268.999c0 1.33301 -0.165039 2.66699 -0.498047 4s-1.83301 2 -4.5 2h-27v67
h41c25.333 0 42.666 -5.16699 51.999 -15.5s14 -27.833 14 -52.5v-5c0 -4 1.16699 -8 3.5 -12s7.16602 -6 14.499 -6s12 2 14 6s3 8 3 12v73h76v-73c0 -26 -8.66699 -47 -26 -63s-39.666 -24 -66.999 -24c-28.667 0 -51.334 8 -68.001 24s-25 37 -25 63z" />
    <glyph glyph-name=".notdef" horiz-adv-x="347" 
d="M353 335l0.000976562 -12h5c4 0 6 2.33301 6 7c0 0.666992 -0.333008 1.66699 -1 3s-2.33398 2 -5.00098 2h-5zM356.001 322h-3v-11h-4v28h9c6.66699 0 10 -3 10 -9c0 -3.33301 -0.833008 -5.5 -2.5 -6.5s-3.5 -1.5 -5.5 -1.5l8 -11h-4zM358.001 306
c7.33301 0 12.167 2 14.5 6s3.5 7.66699 3.5 11c0 6 -1.5 10.833 -4.5 14.5s-7.5 5.5 -13.5 5.5s-10.667 -1.83301 -14 -5.5s-5 -8.5 -5 -14.5c0 -4.66699 1.66699 -8.66699 5 -12s8 -5 14 -5zM358.002 346c7.33301 0 12.666 -2.33301 15.999 -7s5 -10 5 -16
c0 -4.66699 -1.66699 -9 -5 -13s-8.66602 -6 -15.999 -6c-6 0 -11 2 -15 6s-6 8.33301 -6 13c0 6 2 11.333 6 16s9 7 15 7zM168.002 265c8.66699 -0.666992 19.166 -1.83203 31.499 -3.49902s24.5 -3.66699 36.5 -6s22.833 -5 32.5 -8s17.5 -6.5 23.5 -10.5
c-12 22 -29.667 39 -53 51s-47.333 18 -72 18c-18.667 0 -36.667 -3.66699 -54 -11s-31.666 -18.333 -42.999 -33c10.667 1.33301 21 2.16602 31 2.49902s20 0.5 30 0.5h18.5h18.5zM314.001 330.002l0.00195312 -118.001c-26.667 8 -57.334 15 -92.001 21s-71 9 -109 9
c-26.667 0 -53 -1.66699 -79 -5c4 12.667 9.5 24.667 16.5 36s16.167 21.333 27.5 30s24.333 15.334 39 20.001s31 7 49 7c16.667 0 32.167 -1.83301 46.5 -5.5s26.666 -8.16699 36.999 -13.5s19 -11.5 26 -18.5s12.5 -13.167 16.5 -18.5l-0.5 6
c-0.333008 4 -0.5 9.16699 -0.5 15.5v19.5v15h23zM128.003 107.001c0 4 -1.5 7.16699 -4.5 9.5s-6.16699 3.5 -9.5 3.5c-4 0 -7.5 -1.16699 -10.5 -3.5s-4.5 -5.5 -4.5 -9.5c0 -5.33301 1.5 -8.83301 4.5 -10.5s6.5 -2.5 10.5 -2.5c3.33301 0 6.5 0.833008 9.5 2.5
s4.5 5.16699 4.5 10.5zM27.0029 116.001c0 12.667 2.33398 24.1631 7.00098 34.4961s11.334 18.833 20.001 25.5s18.167 11.667 28.5 15s21.5 5 33.5 5c10.667 0 21.167 -1.5 31.5 -4.5s19.666 -7.66699 27.999 -14s14.666 -14.166 18.999 -23.499s6.5 -20.666 6.5 -33.999
v-97h90v168h23v-190h-159v22h25v99c0 16.667 -6 29.167 -18 37.5s-27.333 12.5 -46 12.5c-16.667 0 -31.5 -4.66699 -44.5 -14s-19.5 -22 -19.5 -38v-90l47 49c-2 0.666992 -5.33301 3.33398 -10 8.00098s-7 11.334 -7 20.001c0 9.33301 3 17 9 23s14.333 9 25 9
c9.33301 0 16.833 -3.16699 22.5 -9.5s8.5 -13.833 8.5 -22.5c0 -8 -1.5 -14.167 -4.5 -18.5s-5.5 -7.5 -7.5 -9.5l-14.5 -14.5c-8.33301 -8.33301 -17.5 -16.833 -27.5 -25.5l-40 -38h-26v115z" />
    <glyph glyph-name="space" unicode=" " horiz-adv-x="209" 
 />
    <glyph glyph-name="exclam" unicode="!" horiz-adv-x="240" 
d="M164 160h-64l-13 345h89zM85 41c0 13.333 4.5 24.5 13.5 33.5s20.167 13.5 33.5 13.5s24.5 -4.5 33.5 -13.5s13.5 -20.167 13.5 -33.5s-4.5 -24.5 -13.5 -33.5s-20.167 -13.5 -33.5 -13.5s-24.5 4.5 -33.5 13.5s-13.5 20.167 -13.5 33.5z" />
    <glyph glyph-name="quotedbl" unicode="&#x22;" horiz-adv-x="321" 
d="M191 374v144h76v-144h-76zM54 374v144h76v-144h-76z" />
    <glyph glyph-name="numbersign" unicode="#" horiz-adv-x="491" 
d="M114 218l13 82h-57v71h68l21 132h82l-21 -132h89l21 132h81l-21 -132h54v-71h-65l-13 -82h54v-72h-67l-22 -146h-81l23 146h-90l-22 -146h-82l23 146h-55v72h67zM196 218h89l13 82h-89z" />
    <glyph glyph-name="dollar" unicode="$" horiz-adv-x="414" 
d="M387 143c0 -42 -13.8311 -75.834 -41.498 -101.501s-64.5 -41.167 -110.5 -46.5v-79h-64v76c-33.333 2 -62.833 8.33301 -88.5 19s-50.167 27.667 -73.5 51l55 55c18 -18 36 -30.5 54 -37.5s38.333 -11.167 61 -12.5v151c-3.33301 0 -6.33301 0.333008 -9 1s-5 1 -7 1
c-18.667 2.66699 -36.334 7.5 -53.001 14.5s-31.167 16.333 -43.5 28s-22 25.667 -29 42s-10.5 34.5 -10.5 54.5c0 40.667 12.667 74.5 38 101.5s60.666 43.167 105.999 48.5v63h64v-63c28 -2 52.833 -7.66699 74.5 -17s42.167 -23.666 61.5 -42.999l-53 -51
c-26 23.333 -56 36.333 -90 39v-148l22 -2c40 -6 72.833 -20 98.5 -42s38.5 -56 38.5 -102zM179.002 435.999c-24 -3.33301 -41.999 -11.6689 -53.999 -25.002s-18 -29.666 -18 -48.999c0 -20.667 7.16699 -36.167 21.5 -46.5s31.166 -17.166 50.499 -20.499v141z
M306.003 140.996c0 23.333 -7.16699 40.167 -21.5 50.5s-33.166 17.166 -56.499 20.499v-143c25.333 2.66699 44.666 10.334 57.999 23.001s20 29 20 49z" />
    <glyph glyph-name="percent" unicode="%" horiz-adv-x="590" 
d="M554 95c0 -32 -9.83301 -56.833 -29.5 -74.5s-43.834 -26.5 -72.501 -26.5s-52.667 8.83301 -72 26.5s-29 42.5 -29 74.5v69c0 32 9.66699 56.5 29 73.5s43.333 25.5 72 25.5s52.834 -8.5 72.501 -25.5s29.5 -41.5 29.5 -73.5v-69zM207 0h-65l241 503h64zM240 339
c0 -31.333 -9.83301 -55.5 -29.5 -72.5s-44.167 -25.5 -73.5 -25.5c-28.667 0 -52.667 8.5 -72 25.5s-29 41.167 -29 72.5v70c0 32 9.66699 56.667 29 74s43.333 26 72 26c29.333 0 53.833 -8.66699 73.5 -26s29.5 -42 29.5 -74v-70zM494 162
c0 15.333 -3.5 27.167 -10.5 35.5s-17.5 12.5 -31.5 12.5s-24.333 -4.16699 -31 -12.5s-10 -20.166 -10 -35.499v-65c0 -32 13.667 -48 41 -48c14 0 24.5 4.16699 31.5 12.5s10.5 20.166 10.5 35.499v65zM180 407.001c0 31.333 -14.333 47 -43 47
c-27.333 0 -41 -15.667 -41 -47v-66c0 -31.333 13.667 -47 41 -47c14.667 0 25.5 4.16699 32.5 12.5s10.5 19.833 10.5 34.5v66z" />
    <glyph glyph-name="ampersand" unicode="&#x26;" horiz-adv-x="535" 
d="M394 0l-41.0039 48.002l-21.5 -16c-8.33301 -6 -18.166 -11.833 -29.499 -17.5s-24.333 -10.334 -39 -14.001s-31 -5.5 -49 -5.5c-53.333 0 -94.166 13.833 -122.499 41.5s-42.5 65.167 -42.5 112.5c0 17.333 2.83301 33 8.5 47s13 26.667 22 38s19.5 21.5 31.5 30.5
s24 17.5 36 25.5c-11.333 13.333 -22.5 28.833 -33.5 46.5s-16.5 38.167 -16.5 61.5c0 32.667 11.167 59.834 33.5 81.501s52.833 32.5 91.5 32.5c36.667 0 66.167 -10.833 88.5 -32.5s33.5 -49.167 33.5 -82.5c0 -21.333 -5 -39 -15 -53s-23 -26.667 -39 -38l-13 -9
c-3.33301 -2.66699 -7 -5.33398 -11 -8.00098s-7.66699 -5 -11 -7l50.5 -60.5l50.5 -60.5c8.66699 12.667 14.834 26.5 18.501 41.5s5.83398 34.167 6.50098 57.5h74c-1.33301 -32.667 -5.5 -61.834 -12.5 -87.501s-19.167 -49.167 -36.5 -70.5l87 -102h-99z
M269.996 397.002c0 13.333 -4.66699 24.668 -14 34.001s-20.666 14 -33.999 14c-14.667 0 -26.167 -4.66699 -34.5 -14s-12.5 -20.666 -12.5 -33.999c0 -10 3 -19.833 9 -29.5s15 -21.167 27 -34.5c2 1.33301 4.16699 2.66602 6.5 3.99902s4.83301 2.66602 7.5 3.99902
c2.66699 2 5.66699 3.66699 9 5c9.33301 6.66699 17.666 14 24.999 22s11 17.667 11 29zM189.996 242.004l-24.498 -19.5c-7.66699 -6.33301 -14.5 -13 -20.5 -20s-10.667 -14.833 -14 -23.5s-5 -18.667 -5 -30c0 -23.333 8.33301 -42.833 25 -58.5s37.667 -23.5 63 -23.5
c17.333 0 33.166 2.5 47.499 7.5s29.166 14.167 44.499 27.5z" />
    <glyph glyph-name="quotesingle" unicode="'" horiz-adv-x="199" 
d="M61 374v144h76v-144h-76z" />
    <glyph glyph-name="parenleft" unicode="(" horiz-adv-x="223" 
d="M136 -71c-11.333 11.333 -21.832 22.5029 -31.499 33.5029s-18 22.833 -25 35.5s-12.5 26.167 -16.5 40.5s-6 30.833 -6 49.5v375c0 33.333 6.33301 62 19 86s32.667 48.667 60 74l52 -51l-22 -24.5c-6.66699 -7.66699 -12.334 -15.834 -17.001 -24.501
s-8.33398 -18.167 -11.001 -28.5s-4 -21.833 -4 -34.5v-367c0 -24.667 4.33301 -44.834 13 -60.501s22.334 -32.834 41.001 -51.501z" />
    <glyph glyph-name="parenright" unicode=")" horiz-adv-x="223" 
d="M33 -19c18.667 18.667 32.167 35.8311 40.5 51.498s12.5 35.834 12.5 60.501v367c0 12.667 -1.33301 24.167 -4 34.5s-6.16699 19.833 -10.5 28.5s-9.83301 16.834 -16.5 24.501l-22 24.5l52 51c27.333 -25.333 47.333 -50 60 -74s19 -52.667 19 -86v-375
c0 -18.667 -2 -35.167 -6 -49.5s-9.5 -27.833 -16.5 -40.5s-15.333 -24.5 -25 -35.5s-20.167 -22.167 -31.5 -33.5z" />
    <glyph glyph-name="asterisk" unicode="*" horiz-adv-x="368" 
d="M293 279l-83 52l2 -99h-56l3 99l-84 -52l-27 49l86 46l-86 46l27 49l84 -52l-3 98h56l-2 -98l83 52l28 -49l-87 -46l87 -46z" />
    <glyph glyph-name="plus" unicode="+" horiz-adv-x="438" 
d="M255 171v-126h-72v126h-126v72h126v125h72v-125h126v-72h-126z" />
    <glyph glyph-name="comma" unicode="," horiz-adv-x="203" 
d="M58 -117v204h88v-132z" />
    <glyph glyph-name="hyphen" unicode="-" horiz-adv-x="336" 
d="M58 171v72h219v-72h-219z" />
    <glyph glyph-name="period" unicode="." horiz-adv-x="208" 
d="M53 46c0 14.667 4.83301 27 14.5 37s21.834 15 36.501 15s27 -5 37 -15s15 -22.333 15 -37s-5 -27 -15 -37s-22.333 -15 -37 -15s-26.834 5 -36.501 15s-14.5 22.333 -14.5 37z" />
    <glyph glyph-name="slash" unicode="/" horiz-adv-x="274" 
d="M64 -55h-73l219 662h73z" />
    <glyph glyph-name="zero" unicode="0" horiz-adv-x="375" 
d="M337 141c0 -22.667 -4 -43 -12 -61s-18.667 -33.333 -32 -46s-29.166 -22.334 -47.499 -29.001s-37.833 -10 -58.5 -10s-40 3.33301 -58 10s-33.833 16.334 -47.5 29.001s-24.334 28 -32.001 46s-11.5 38.333 -11.5 61v222c0 22.667 3.83301 43 11.5 61
s18.334 33.167 32.001 45.5s29.5 21.833 47.5 28.5s37.333 10 58 10s40.167 -3.33301 58.5 -10s34.166 -16.167 47.499 -28.5s24 -27.5 32 -45.5s12 -38.333 12 -61v-222zM258 361c0 22.667 -6.16699 41.334 -18.5 56.001s-29.833 22 -52.5 22
c-22 0 -39.333 -7.33301 -52 -22s-19 -33.334 -19 -56.001v-216c0 -24 6.33301 -43.333 19 -58s30 -22 52 -22c22.667 0 40.167 7.33301 52.5 22s18.5 34 18.5 58v216z" />
    <glyph glyph-name="one" unicode="1" horiz-adv-x="375" 
d="M176 0v416l-99 -84v85l101 86h76v-503h-78z" />
    <glyph glyph-name="two" unicode="2" horiz-adv-x="375" 
d="M40 0v67.001l195 235c9.33301 10 16 20.167 20 30.5s6 21.833 6 34.5c0 21.333 -6.16699 38.666 -18.5 51.999s-29.833 20 -52.5 20c-18 0 -34.667 -5.83301 -50 -17.5s-23 -31.167 -23 -58.5h-77c0 44 14 79.167 42 105.5s64 39.5 108 39.5c44.667 0 81 -12.667 109 -38
s42 -60 42 -104c0 -20.667 -4.5 -39.5 -13.5 -56.5s-21.167 -34.5 -36.5 -52.5l-77.5 -94.5l-77.5 -93.5h205v-69h-301z" />
    <glyph glyph-name="three" unicode="3" horiz-adv-x="375" 
d="M339 142c0 -24.667 -4.16211 -46.333 -12.4951 -65s-19.833 -34.167 -34.5 -46.5s-31.5 -21.666 -50.5 -27.999s-39.5 -9.5 -61.5 -9.5c-20.667 0 -40.334 2.83301 -59.001 8.5s-35.334 14.5 -50.001 26.5s-26.334 27.167 -35.001 45.5s-13.334 40.166 -14.001 65.499h78
c1.33301 -26.667 10 -45.834 26 -57.501s34 -17.5 54 -17.5c22.667 0 41.667 7 57 21s23 33.667 23 59c0 24.667 -6.66699 43.834 -20 57.501s-34 20.5 -62 20.5h-15v69h15c25.333 0 44 6.66699 56 20s18 31.333 18 54c0 23.333 -7.16699 41.333 -21.5 54
s-31.166 19 -50.499 19c-20.667 0 -37.667 -6.33301 -51 -19s-20.666 -29.667 -21.999 -51h-79c0.666992 22 5.16699 41.667 13.5 59s19.166 32 32.499 44s29 21.167 47 27.5s37.667 9.5 59 9.5c22 0 42.167 -3.33301 60.5 -10s34.166 -16.334 47.499 -29.001
s23.666 -27.667 30.999 -45s11 -36.333 11 -57c0 -25.333 -5.5 -47 -16.5 -65s-25.167 -32 -42.5 -42c21.333 -9.33301 38 -23.666 50 -42.999s18 -44.333 18 -75z" />
    <glyph glyph-name="four" unicode="4" horiz-adv-x="375" 
d="M299 74v-74h-76v74h-206v72l181 357h84l-178 -355h119v116h76v-116h55v-74h-55z" />
    <glyph glyph-name="five" unicode="5" horiz-adv-x="375" 
d="M342 169c0 -24 -2.83105 -46.666 -8.49805 -67.999s-14.5 -39.833 -26.5 -55.5s-27.833 -28.167 -47.5 -37.5s-43.5 -14 -71.5 -14c-46 0 -81.833 12.833 -107.5 38.5s-39.167 59.5 -40.5 101.5h77c3.33301 -22 10.666 -39 21.999 -51s27.666 -18 48.999 -18
c10 0 19.5 1.5 28.5 4.5s16.833 7.83301 23.5 14.5c10 10 16.333 22.5 19 37.5s4 30.833 4 47.5c0 14.667 -1 28.167 -3 40.5s-5.83301 23.166 -11.5 32.499s-13.167 16.666 -22.5 21.999s-21 8 -35 8c-19.333 0 -35 -4.5 -47 -13.5s-19.667 -19.833 -23 -32.5h-70v277h278
v-68h-208v-123c9.33301 7.33301 20.833 13.333 34.5 18s29.167 7 46.5 7c26 0 48 -4.66699 66 -14s32.5 -21.833 43.5 -37.5s18.833 -33.667 23.5 -54s7 -41.166 7 -62.499z" />
    <glyph glyph-name="six" unicode="6" horiz-adv-x="375" 
d="M349 159c0 -25.333 -4 -48 -12 -68s-19.167 -37.167 -33.5 -51.5s-31.5 -25.333 -51.5 -33s-41.667 -11.5 -65 -11.5c-47.333 0 -86 14.167 -116 42.5s-45 67.5 -45 117.5c0 21.333 3.83301 42.5 11.5 63.5s17.167 43.167 28.5 66.5l110 218h89l-100 -196
c6 2 12.333 3.33301 19 4s13.334 1 20.001 1c20 0 38.667 -3.5 56 -10.5s32.666 -17.167 45.999 -30.5s23.833 -29.5 31.5 -48.5s11.5 -40.167 11.5 -63.5zM269 157c0 24 -7.5 44.333 -22.5 61s-34.833 25 -59.5 25c-23.333 0 -42.833 -7.5 -58.5 -22.5
s-23.5 -36.167 -23.5 -63.5c0 -28 7.83301 -50 23.5 -66s35.167 -24 58.5 -24s42.833 8 58.5 24s23.5 38 23.5 66z" />
    <glyph glyph-name="seven" unicode="7" horiz-adv-x="375" 
d="M173 0h-84l171 435h-149v-79h-75v147h308v-66z" />
    <glyph glyph-name="eight" unicode="8" horiz-adv-x="375" 
d="M347 145c0 -23.333 -4.16895 -44.166 -12.502 -62.499s-19.666 -34 -33.999 -47s-31.333 -23 -51 -30s-40.5 -10.5 -62.5 -10.5s-42.667 3.5 -62 10.5s-36.166 17 -50.499 30s-25.666 28.667 -33.999 47s-12.5 39.166 -12.5 62.499c0 28 6.83301 51.667 20.5 71
s28.834 34.333 45.501 45c-15.333 9.33301 -28.833 23 -40.5 41s-17.5 40 -17.5 66c0 21.333 4 40.666 12 57.999s18.667 32 32 44s29.166 21.333 47.499 28s38.166 10 59.499 10s41.166 -3.33301 59.499 -10s34.333 -16 48 -28s24.5 -26.667 32.5 -44
s12 -36.666 12 -57.999c0 -26 -5.83301 -48 -17.5 -66s-25.167 -31.667 -40.5 -41c16.667 -10.667 31.834 -25.667 45.501 -45s20.5 -43 20.5 -71zM259.998 366c0 20 -6.66699 37.167 -20 51.5s-31 21.5 -53 21.5c-21.333 0 -38.833 -7.16699 -52.5 -21.5
s-20.5 -31.5 -20.5 -51.5c0 -22 6.83301 -39.667 20.5 -53s31.167 -20 52.5 -20c22 0 39.667 6.66699 53 20s20 31 20 53zM267.998 145c0 22 -7.66699 40.833 -23 56.5s-34.666 23.5 -57.999 23.5c-22.667 0 -41.667 -7.83301 -57 -23.5s-23 -34.5 -23 -56.5
s7.66699 -40.833 23 -56.5s34.333 -23.5 57 -23.5c23.333 0 42.666 7.83301 57.999 23.5s23 34.5 23 56.5z" />
    <glyph glyph-name="nine" unicode="9" horiz-adv-x="375" 
d="M26 344c0 24.667 4 47.1689 12 67.502s19.167 37.666 33.5 51.999s31.333 25.333 51 33s41.167 11.5 64.5 11.5s45 -3.66699 65 -11s37.167 -18 51.5 -32s25.5 -30.833 33.5 -50.5s12 -41.834 12 -66.501c0 -21.333 -3.83301 -42.5 -11.5 -63.5
s-17.167 -43.167 -28.5 -66.5l-110 -218h-90l101 196c-6 -2 -12.333 -3.33301 -19 -4s-13.334 -1 -20.001 -1c-20 0 -38.667 3.5 -56 10.5s-32.666 17.167 -45.999 30.5s-23.833 29.5 -31.5 48.5s-11.5 40.167 -11.5 63.5zM106 346.002c0 -24 7.5 -44.5 22.5 -61.5
s34.833 -25.5 59.5 -25.5c23.333 0 42.833 7.5 58.5 22.5s23.5 36.5 23.5 64.5c0 27.333 -7.83301 49.166 -23.5 65.499s-35.167 24.5 -58.5 24.5s-42.833 -8.16699 -58.5 -24.5s-23.5 -38.166 -23.5 -65.499z" />
    <glyph glyph-name="colon" unicode=":" horiz-adv-x="230" 
d="M74 46c0 14.667 5 27 15 37s22.333 15 37 15s27 -5 37 -15s15 -22.333 15 -37s-5 -27 -15 -37s-22.333 -15 -37 -15s-27 5 -37 15s-15 22.333 -15 37zM74 279c0 14.667 5 27 15 37s22.333 15 37 15s27 -5 37 -15s15 -22.333 15 -37s-5 -27 -15 -37s-22.333 -15 -37 -15
s-27 5 -37 15s-15 22.333 -15 37z" />
    <glyph glyph-name="semicolon" unicode=";" horiz-adv-x="230" 
d="M81 -117v204h87v-132zM73 279c0 14.667 5 27 15 37s22.333 15 37 15s27 -5 37 -15s15 -22.333 15 -37s-5 -27 -15 -37s-22.333 -15 -37 -15s-27 5 -37 15s-15 22.333 -15 37z" />
    <glyph glyph-name="less" unicode="&#x3c;" horiz-adv-x="432" 
d="M395 63l-357 138v59l357 139v-78l-239 -90l119.5 -45.5l119.5 -44.5v-78z" />
    <glyph glyph-name="equal" unicode="=" horiz-adv-x="414" 
d="M45 244v72h323v-72h-323zM45 98v71h323v-71h-323z" />
    <glyph glyph-name="greater" unicode="&#x3e;" horiz-adv-x="432" 
d="M38 141l119 44.5l119 45.5l-238 90v78l357 -139v-59l-357 -138v78z" />
    <glyph glyph-name="question" unicode="?" horiz-adv-x="364" 
d="M325 373c0 -17.333 -3.33398 -32.999 -10.001 -46.999s-14.667 -27.667 -24 -41l-54 -76c-4 -5.33301 -6.83301 -11.333 -8.5 -18s-2.5 -12.667 -2.5 -18v-24h-78v28c0 14.667 1.83301 27.167 5.5 37.5s9.83398 21.5 18.501 33.5l56 73c5.33301 8 10 16.333 14 25
s6 17.667 6 27c0 18.667 -6.16699 34.667 -18.5 48s-28.166 20 -47.499 20c-21.333 0 -37.5 -7.16699 -48.5 -21.5s-16.5 -31.166 -16.5 -50.499h-77c0 20.667 3.66699 39.667 11 57s17.333 32.166 30 44.499s27.667 21.833 45 28.5s36 10 56 10
c19.333 0 37.666 -3.16699 54.999 -9.5s32.5 -15.333 45.5 -27s23.333 -25.834 31 -42.501s11.5 -35.667 11.5 -57zM137.999 41.001c0 13.333 4.5 24.5 13.5 33.5s20.167 13.5 33.5 13.5s24.5 -4.5 33.5 -13.5s13.5 -20.167 13.5 -33.5s-4.5 -24.5 -13.5 -33.5
s-20.167 -13.5 -33.5 -13.5s-24.5 4.5 -33.5 13.5s-13.5 20.167 -13.5 33.5z" />
    <glyph glyph-name="at" unicode="@" horiz-adv-x="626" 
d="M494 37c-28 -21.333 -58.4961 -36.1699 -91.4961 -44.5029s-64.5 -12.5 -94.5 -12.5c-38.667 0 -74.334 7 -107.001 21s-60.834 33.167 -84.501 57.5s-42 53 -55 86s-18.833 68.5 -17.5 106.5c0.666992 38.667 8.5 74.5 23.5 107.5s34.833 61.833 59.5 86.5
s53.667 44 87 58s69 21 107 21c38.667 0 74.167 -6.5 106.5 -19.5s60.166 -31.333 83.499 -55s41.166 -51.667 53.499 -84s18.166 -67.5 17.499 -105.5c-0.666992 -20 -4.16699 -40 -10.5 -60s-15.666 -38.167 -27.999 -54.5s-27.666 -29.666 -45.999 -39.999
s-39.833 -15.5 -64.5 -15.5c-16 0 -29.667 3 -41 9s-20.333 14.333 -27 25c-16 -13.333 -31.667 -22.333 -47 -27s-30.333 -7 -45 -7c-21.333 0 -39.333 5 -54 15s-26.334 22.833 -35.001 38.5s-14.334 33.167 -17.001 52.5s-2.33398 38.333 0.999023 57
c4 22 10 42.667 18 62s18.333 36.333 31 51s27.667 26.334 45 35.001s37.333 13 60 13c27.333 0 50 -7 68 -21l3 13h66l-38 -211c-0.666992 -4 -1.33398 -8.66699 -2.00098 -14s-0.666992 -10.5 0 -15.5s2.33398 -9.16699 5.00098 -12.5s7.33398 -5 14.001 -5
c12.667 0 23.834 3.5 33.501 10.5s17.667 15.833 24 26.5s11.333 22.667 15 36s5.83398 26.333 6.50098 39c0.666992 28 -3.66602 54.167 -12.999 78.5s-22.833 45.5 -40.5 63.5s-38.667 32.167 -63 42.5s-50.833 15.5 -79.5 15.5c-27.333 0 -53.333 -5.5 -78 -16.5
s-46.334 -26 -65.001 -45s-33.667 -41.167 -45 -66.5s-17.333 -52.333 -18 -81c-0.666992 -30.667 4.16602 -58.667 14.499 -84s24.5 -47.166 42.5 -65.499s38.833 -32.666 62.5 -42.999s48.167 -15.5 73.5 -15.5c22.667 0 47 3.16699 73 9.5s49.667 17.166 71 32.499z
M366.004 252.996c1.33301 8.66699 2.50098 19.001 3.50098 31.001s0.333008 23.333 -2 34s-7 19.667 -14 27s-17.5 11 -31.5 11c-13.333 0 -24.833 -3.33301 -34.5 -10s-18 -15.334 -25 -26.001s-12.5 -22.334 -16.5 -35.001s-7 -25 -9 -37
c-1.33301 -8.66699 -2.33301 -18.667 -3 -30s0.166016 -22.166 2.49902 -32.499s6.83301 -19.166 13.5 -26.499s16.667 -11 30 -11c14 0 26 3 36 9s18.333 14 25 24s12 21.167 16 33.5s7 25.166 9 38.499z" />
    <glyph glyph-name="A" unicode="A" horiz-adv-x="437" 
d="M350 0l-35 100h-194l-35 -100h-86l186 503h65l186 -503h-87zM220 379l-75 -209h147z" />
    <glyph glyph-name="B" unicode="B" horiz-adv-x="469" 
d="M420 143c0 -47.333 -14.167 -82.999 -42.5 -106.999s-65.5 -36 -111.5 -36h-196v503h188c48 0 85.833 -12.333 113.5 -37s41.5 -58.334 41.5 -101.001c0 -26 -6.5 -48.167 -19.5 -66.5s-27.5 -31.833 -43.5 -40.5c18 -8 34.167 -21.5 48.5 -40.5s21.5 -43.833 21.5 -74.5
zM332 361.001c0 22.667 -7.5 39.833 -22.5 51.5s-34.167 17.5 -57.5 17.5h-101v-138h101c23.333 0 42.5 6 57.5 18s22.5 29 22.5 51zM338 147c0 21.333 -6.83301 38.667 -20.5 52s-33.167 20 -58.5 20h-108v-146h108c25.333 0 44.833 7 58.5 21s20.5 31.667 20.5 53z" />
    <glyph glyph-name="C" unicode="C" horiz-adv-x="444" 
d="M411 155c-8.66699 -52 -29.499 -91.668 -62.499 -119.001s-72.5 -41 -118.5 -41c-26 0 -50.167 4.83301 -72.5 14.5s-42.166 23.167 -59.499 40.5c-12 12.667 -21.333 25.667 -28 39s-11.5 28 -14.5 44s-4.83301 33.667 -5.5 53s-1 41 -1 65s0.333008 45.667 1 65
s2.66699 37.166 6 53.499s8.16602 31.333 14.499 45s15.5 26.5 27.5 38.5c17.333 17.333 37.333 30.833 60 40.5s46.667 14.5 72 14.5c46 0 85.5 -13.667 118.5 -41s54.167 -66.666 63.5 -117.999h-84c-6 25.333 -17 45.666 -33 60.999s-37.667 23 -65 23
c-14 0 -27.333 -2.33301 -40 -7s-22.667 -11.667 -30 -21c-6 -6 -11 -12.833 -15 -20.5s-7.16699 -17.167 -9.5 -28.5s-3.83301 -25.5 -4.5 -42.5s-1 -37.833 -1 -62.5s0.333008 -45.167 1 -61.5s2.16699 -30.166 4.5 -41.499s5.5 -20.833 9.5 -28.5s9 -14.5 15 -20.5
c7.33301 -9.33301 17.333 -16.666 30 -21.999s26 -8 40 -8c27.333 0 49.166 8 65.499 24s27.5 36.667 33.5 62h82v0z" />
    <glyph glyph-name="D" unicode="D" horiz-adv-x="484" 
d="M432 255c0 -32 -1.66602 -63.334 -4.99902 -94.001s-11.333 -58 -24 -82s-31 -43.167 -55 -57.5s-57 -21.5 -99 -21.5h-179v503h179c36.667 0 67 -6 91 -18s42.667 -28.833 56 -50.5s22.666 -47.667 27.999 -78s8 -64.166 8 -101.499zM351.001 254.999
c0 20.667 -0.666992 41.3311 -2 61.998s-5.5 39.334 -12.5 56.001s-18 30.334 -33 41.001s-35.833 16 -62.5 16h-90v-357h90c25.333 0 45.333 5 60 15s25.667 23.333 33 40s12 36 14 58s3 45 3 69z" />
    <glyph glyph-name="E" unicode="E" horiz-adv-x="423" 
d="M70 0v503h327v-73h-246v-140h210v-73h-210v-144h246v-73h-327z" />
    <glyph glyph-name="F" unicode="F" horiz-adv-x="395" 
d="M151 430v-146h199v-73h-199v-211h-81v503h315v-73h-234z" />
    <glyph glyph-name="G" unicode="G" horiz-adv-x="459" 
d="M414 196c0 -33.333 -3.50391 -61.002 -10.5039 -83.002s-18.833 -41.667 -35.5 -59c-19.333 -21.333 -40.666 -36.5 -63.999 -45.5s-48.666 -13.5 -75.999 -13.5c-26 0 -50.167 4.83301 -72.5 14.5s-42.166 23.167 -59.499 40.5c-12 12.667 -21.333 25.667 -28 39
s-11.5 28 -14.5 44s-4.83301 33.667 -5.5 53s-1 41 -1 65s0.333008 45.667 1 65s2.66699 37.166 6 53.499s8.16602 31.333 14.499 45s15.5 26.5 27.5 38.5c17.333 17.333 37.166 30.833 59.499 40.5s46.5 14.5 72.5 14.5c26.667 0 50.667 -4.33301 72 -13
s39.833 -20.167 55.5 -34.5s28.334 -31.166 38.001 -50.499s16.167 -40 19.5 -62h-82c-6.66699 27.333 -18.5 48.333 -35.5 63s-39.5 22 -67.5 22c-14 0 -27.333 -2.5 -40 -7.5s-22.667 -12.167 -30 -21.5c-6 -6 -11 -12.667 -15 -20s-7 -16.666 -9 -27.999
s-3.5 -25.333 -4.5 -42s-1.5 -37.667 -1.5 -63c0 -24.667 0.5 -45.334 1.5 -62.001s2.5 -30.667 4.5 -42s5 -20.666 9 -27.999s9 -14 15 -20c7.33301 -9.33301 17.333 -16.666 30 -21.999s26 -8 40 -8c16.667 0 31.834 3 45.501 9s24.834 14.333 33.501 25
c9.33301 10 15.833 21.5 19.5 34.5s5.5 27.167 5.5 42.5v25h-106v69h188v-78v0z" />
    <glyph glyph-name="H" unicode="H" horiz-adv-x="501" 
d="M350 0v217h-199v-217h-81v503h81v-212h199v212h81v-503h-81z" />
    <glyph glyph-name="I" unicode="I" horiz-adv-x="230" 
d="M74 0v503h82v-503h-82z" />
    <glyph glyph-name="J" unicode="J" horiz-adv-x="348" 
d="M285 160c0 -26 -4.33105 -49.332 -12.998 -69.999s-20.667 -38 -36 -52s-33.333 -24.667 -54 -32s-43 -11 -67 -11c-26.667 0 -49.834 4 -69.501 12s-38.5 21.333 -56.5 40l54 54c9.33301 -9.33301 19.166 -17 29.499 -23s24.5 -9 42.5 -9
c27.333 0 48.833 8.16699 64.5 24.5s23.5 40.166 23.5 71.499v338h82v-343v0z" />
    <glyph glyph-name="K" unicode="K" horiz-adv-x="460" 
d="M372 0l-140 243l-81 -97v-146h-81v503h81v-245l202 245h100l-165 -198l182 -305h-98z" />
    <glyph glyph-name="L" unicode="L" horiz-adv-x="392" 
d="M70 0v503h81v-430h231v-73h-312z" />
    <glyph glyph-name="M" unicode="M" horiz-adv-x="587" 
d="M436 0v322l-111 -232h-60l-114 232v-322h-81v503h73l152 -315l149 315h73v-503h-81z" />
    <glyph glyph-name="N" unicode="N" horiz-adv-x="529" 
d="M392 0l-241 352v-352h-81v503h66l242 -353v353h81v-503h-67z" />
    <glyph glyph-name="O" unicode="O" horiz-adv-x="461" 
d="M412 251c0 -24 -0.162109 -45.668 -0.495117 -65.001s-2 -37 -5 -53s-7.83301 -30.667 -14.5 -44s-16.334 -26.333 -29.001 -39c-17.333 -17.333 -37 -30.833 -59 -40.5s-47 -14.5 -75 -14.5c-26.667 0 -51 4.83301 -73 14.5s-41.667 23.167 -59 40.5
c-12 12.667 -21.333 25.667 -28 39s-11.5 28 -14.5 44s-4.83301 33.667 -5.5 53s-1 41 -1 65s0.333008 45.667 1 65s2.66699 37.166 6 53.499s8.16602 31.333 14.499 45s15.5 26.5 27.5 38.5c17.333 17.333 37.166 30.833 59.499 40.5s46.5 14.5 72.5 14.5
c27.333 0 52.166 -4.83301 74.499 -14.5s42.166 -23.167 59.499 -40.5c11.333 -12 20.333 -25 27 -39s11.667 -29.167 15 -45.5s5.33301 -34.166 6 -53.499s1 -40.666 1 -63.999zM330.005 250.999c0 24.667 -0.333008 45.498 -1 62.498s-2 31.167 -4 42.5
s-4.83301 20.666 -8.5 27.999s-8.5 14 -14.5 20c-8 9.33301 -18.333 16.5 -31 21.5s-26.667 7.5 -42 7.5c-14 0 -27.333 -2.5 -40 -7.5s-23 -12.167 -31 -21.5c-6 -6 -10.833 -12.667 -14.5 -20s-6.66699 -16.666 -9 -27.999s-3.83301 -25.5 -4.5 -42.5s-1 -37.833 -1 -62.5
s0.333008 -45.167 1 -61.5s2.16699 -30.166 4.5 -41.499s5.33301 -20.666 9 -27.999s8.5 -14.333 14.5 -21c8 -9.33301 18.333 -16.666 31 -21.999s26 -8 40 -8c15.333 0 29.333 2.66699 42 8s23 12.666 31 21.999c6 6 10.833 12.667 14.5 20s6.5 16.666 8.5 27.999
s3.33301 25.333 4 42s1 37.334 1 62.001z" />
    <glyph glyph-name="P" unicode="P" horiz-adv-x="438" 
d="M417 350c0 -45.333 -14.667 -82.3311 -44 -110.998s-69 -43 -119 -43h-103v-196h-81v503h184c24.667 0 47 -3.83301 67 -11.5s37.167 -18.334 51.5 -32.001s25.333 -29.834 33 -48.501s11.5 -39 11.5 -61zM335 350.002c0 24.667 -8 44.167 -24 58.5
s-36.667 21.5 -62 21.5h-98v-160h98c25.333 0 46 7 62 21s24 33.667 24 59z" />
    <glyph glyph-name="Q" unicode="Q" horiz-adv-x="461" 
d="M384 -23l-49.9961 48.998c-14.667 -9.33301 -31 -16.833 -49 -22.5s-36.667 -8.5 -56 -8.5c-26.667 0 -51 4.83301 -73 14.5s-41.667 23.167 -59 40.5c-12 12.667 -21.333 25.667 -28 39s-11.5 28 -14.5 44s-4.83301 33.667 -5.5 53s-1 41 -1 65s0.333008 45.667 1 65
s2.66699 37.166 6 53.499s8.16602 31.333 14.499 45s15.5 26.5 27.5 38.5c17.333 17.333 37.166 30.833 59.499 40.5s46.5 14.5 72.5 14.5c27.333 0 52.166 -4.83301 74.499 -14.5s42.166 -23.167 59.499 -40.5c11.333 -12 20.333 -25 27 -39s11.667 -29.167 15 -45.5
s5.33301 -34.166 6 -53.499s1 -40.666 1 -63.999c0 -41.333 -1.16699 -76.166 -3.5 -104.499s-11.833 -53.833 -28.5 -76.5l49 -47zM330.004 250.998c0 24.667 -0.333008 45.498 -1 62.498s-2 31.167 -4 42.5s-4.83301 20.666 -8.5 27.999s-8.5 14 -14.5 20
c-8 9.33301 -18.333 16.5 -31 21.5s-26.667 7.5 -42 7.5c-14 0 -27.333 -2.5 -40 -7.5s-23 -12.167 -31 -21.5c-6 -6 -10.833 -12.667 -14.5 -20s-6.66699 -16.666 -9 -27.999s-3.83301 -25.5 -4.5 -42.5s-1 -37.833 -1 -62.5s0.333008 -45.167 1 -61.5
s2.16699 -30.166 4.5 -41.499s5.33301 -20.666 9 -27.999s8.5 -14.333 14.5 -21c8 -9.33301 18.333 -16.666 31 -21.999s26 -8 40 -8c18 0 33.667 4.66699 47 14l-51 51l45 46l47 -47c6 13.333 9.66699 28.666 11 45.999s2 41.333 2 72z" />
    <glyph glyph-name="R" unicode="R" horiz-adv-x="468" 
d="M352 0l-109.999 210.001h-91v-210h-81v503h197c24 0 45.833 -3.66699 65.5 -11s36.5 -17.5 50.5 -30.5s24.667 -28.5 32 -46.5s11 -38 11 -60c0 -36 -9.33301 -65.333 -28 -88s-42.334 -38.334 -71.001 -47.001l120 -220h-95zM344.001 354.001
c0 23.333 -7.66699 41.834 -23 55.501s-35.333 20.5 -60 20.5h-110v-151h110c24.667 0 44.667 6.66699 60 20s23 31.666 23 54.999z" />
    <glyph glyph-name="S" unicode="S" horiz-adv-x="394" 
d="M372 144c0 -23.333 -4.5 -44.167 -13.5 -62.5s-21.667 -34 -38 -47s-35.666 -22.833 -57.999 -29.5s-46.833 -10 -73.5 -10c-38 0 -71.5 5.16699 -100.5 15.5s-56.167 28.166 -81.5 53.499l55 54c19.333 -19.333 39.166 -32.333 59.499 -39s43.166 -10 68.499 -10
c32 0 56.833 6.5 74.5 19.5s26.5 31.167 26.5 54.5s-6.33301 40 -19 50s-30.334 16.333 -53.001 19l-29.5 4l-29.5 4c-42 5.33301 -75.167 19.166 -99.5 41.499s-36.5 54.5 -36.5 96.5c0 44.667 15.167 80.667 45.5 108s72.5 41 126.5 41c34 0 63.333 -4.5 88 -13.5
s48.334 -24.167 71.001 -45.5l-52 -52c-15.333 15.333 -32.166 25.833 -50.499 31.5s-37.833 8.5 -58.5 8.5c-29.333 0 -51.5 -7.16699 -66.5 -21.5s-22.5 -32.166 -22.5 -53.499c0 -20 7.16699 -35.167 21.5 -45.5s31.5 -17.166 51.5 -20.499l57 -8
c44 -6.66699 77.833 -21 101.5 -43s35.5 -55.333 35.5 -100z" />
    <glyph glyph-name="T" unicode="T" horiz-adv-x="375" 
d="M228 430v-430h-81v430h-139v73h360v-73h-140z" />
    <glyph glyph-name="U" unicode="U" horiz-adv-x="492" 
d="M429 170c0 -26 -4.66895 -49.667 -14.002 -71s-22.166 -39.833 -38.499 -55.5s-35.833 -27.667 -58.5 -36s-47 -12.5 -73 -12.5s-50.167 4.16699 -72.5 12.5s-41.5 20.333 -57.5 36s-28.667 34.167 -38 55.5s-14 45 -14 71v333h82v-329c0 -32 9 -57.5 27 -76.5
s42.333 -28.5 73 -28.5s55.334 9.5 74.001 28.5s28 44.5 28 76.5v329h82v-333v0z" />
    <glyph glyph-name="V" unicode="V" horiz-adv-x="418" 
d="M240 0h-63l-167 503h85l113 -354l115 354h85z" />
    <glyph glyph-name="W" unicode="W" horiz-adv-x="621" 
d="M482 0h-71l-100 341l-100 -341h-71l-132 503h86l85 -348l100 348h64l100 -349l85 349h86z" />
    <glyph glyph-name="X" unicode="X" horiz-adv-x="408" 
d="M311 0l-108 188l-106 -188h-96l158 258l-147 245h95l96 -176l98 176h95l-148 -245l159 -258h-96z" />
    <glyph glyph-name="Y" unicode="Y" horiz-adv-x="400" 
d="M241 208v-208h-82v208l-152 295h90l104 -214l102 214h90z" />
    <glyph glyph-name="Z" unicode="Z" horiz-adv-x="405" 
d="M39 0v70l228 360h-219v73h317v-66l-230 -364h230v-73h-326z" />
    <glyph glyph-name="bracketleft" unicode="[" horiz-adv-x="228" 
d="M57 -55v662h165v-68h-88v-526h88v-68h-165z" />
    <glyph glyph-name="backslash" unicode="\" horiz-adv-x="274" 
d="M210 -55l-219 660h74l219 -660h-74z" />
    <glyph glyph-name="bracketright" unicode="]" horiz-adv-x="228" 
d="M7 -55v68h87v526h-87v68h164v-662h-164z" />
    <glyph glyph-name="asciicircum" unicode="^" horiz-adv-x="406" 
d="M288 274l-85 155l-85 -155h-79l129 238h71l128 -238h-79z" />
    <glyph glyph-name="underscore" unicode="_" horiz-adv-x="405" 
d="M0 -137v52h405v-52h-405z" />
    <glyph glyph-name="grave" unicode="`" horiz-adv-x="394" 
d="M179 394l-88 122h81l74 -122h-67z" />
    <glyph glyph-name="a" unicode="a" horiz-adv-x="383" 
d="M257 0v38.998c-14.667 -15.333 -29 -26.5 -43 -33.5s-33.667 -10.5 -59 -10.5c-17.333 0 -34 2.33301 -50 7s-30 11.834 -42 21.501s-21.5 21.834 -28.5 36.501s-10.5 32 -10.5 52c0 32 10.833 58.167 32.5 78.5s54.5 30.5 98.5 30.5h100v26c0 24 -6.33301 42 -19 54
s-34 18 -64 18c-21.333 0 -37.833 -2.83301 -49.5 -8.5s-23.167 -15.167 -34.5 -28.5l-49 47c17.333 21.333 36.333 35.833 57 43.5s47 11.5 79 11.5c104 0 156 -43.333 156 -130v-254h-74zM255 166.998l-90 -0.000976562c-44.667 0 -67 -18 -67 -54
c0 -17.333 5.5 -30.666 16.5 -39.999s28.5 -14 52.5 -14c26 0 46.833 6.66699 62.5 20s24.167 34 25.5 62v26z" />
    <glyph glyph-name="b" unicode="b" horiz-adv-x="405" 
d="M374 190c0 -23.333 -1.83203 -46.667 -5.49902 -70s-10.667 -44.166 -21 -62.499s-24.666 -33.333 -42.999 -45s-42.5 -17.5 -72.5 -17.5c-23.333 0 -42.833 3.83301 -58.5 11.5s-30.5 20.167 -44.5 37.5v-44h-76v550h78v-209c13.333 16.667 28.5 28 45.5 34
s35.833 9 56.5 9c28 0 51.167 -5.33301 69.5 -16s32.666 -24.834 42.999 -42.501s17.666 -38.167 21.999 -61.5s6.5 -48 6.5 -74zM296.001 189.999c0 16.667 -1.16504 32.667 -3.49805 48s-6.5 28.833 -12.5 40.5s-14.5 20.834 -25.5 27.501s-25.167 10 -42.5 10
c-18 0 -32.333 -3.33301 -43 -10s-18.834 -15.834 -24.501 -27.501s-9.33398 -25.167 -11.001 -40.5s-2.5 -31.333 -2.5 -48s1.33301 -32.667 4 -48s7 -28.666 13 -39.999s14.167 -20.5 24.5 -27.5s23.5 -10.5 39.5 -10.5c17.333 0 31.5 3.5 42.5 10.5
s19.5 16.167 25.5 27.5s10.167 24.666 12.5 39.999s3.5 31.333 3.5 48z" />
    <glyph glyph-name="c" unicode="c" horiz-adv-x="362" 
d="M337 50c-18.667 -19.333 -37.833 -33.3311 -57.5 -41.998s-42.5 -13 -68.5 -13c-22 0 -43.167 3.5 -63.5 10.5s-38.333 18.167 -54 33.5s-28.334 35.5 -38.001 60.5s-14.5 55.167 -14.5 90.5s4.83301 65.333 14.5 90s22.334 44.667 38.001 60s33.667 26.5 54 33.5
s41.5 10.5 63.5 10.5c26 0 48.833 -4.16699 68.5 -12.5s38.834 -21.833 57.501 -40.5l-53 -51c-12 13.333 -23.333 22.666 -34 27.999s-23.667 8 -39 8c-17.333 0 -31.833 -3.5 -43.5 -10.5s-21.334 -16.333 -29.001 -28s-13.167 -25.167 -16.5 -40.5s-5 -31 -5 -47
c0 -14.667 1.5 -29.5 4.5 -44.5s8 -28.5 15 -40.5s16.667 -21.833 29 -29.5s27.5 -11.5 45.5 -11.5c15.333 0 28.333 2.66699 39 8s22 14.666 34 27.999l53 -50v0z" />
    <glyph glyph-name="d" unicode="d" horiz-adv-x="405" 
d="M31 190c0 26 2.16895 50.668 6.50195 74.001s11.666 43.833 21.999 61.5s24.666 31.834 42.999 42.501s41.5 16 69.5 16c20.667 0 39.5 -3 56.5 -9s32.5 -17.333 46.5 -34v209h78v-550h-77v44c-14 -17.333 -28.833 -29.833 -44.5 -37.5s-35.167 -11.5 -58.5 -11.5
c-29.333 0 -53.333 5.83301 -72 17.5s-33.167 26.667 -43.5 45s-17.333 39.166 -21 62.499s-5.5 46.666 -5.5 69.999zM109.002 190.001c0 -16.667 1.16797 -32.667 3.50098 -48s6.5 -28.666 12.5 -39.999s14.5 -20.5 25.5 -27.5s25.5 -10.5 43.5 -10.5
c16 0 29.167 3.5 39.5 10.5s18.5 16.167 24.5 27.5s10.333 24.666 13 39.999s4 31.333 4 48s-1 32.667 -3 48s-5.83301 28.833 -11.5 40.5s-13.834 20.834 -24.501 27.501s-24.667 10 -42 10c-18 0 -32.5 -3.33301 -43.5 -10s-19.5 -15.834 -25.5 -27.501
s-10.167 -25.167 -12.5 -40.5s-3.5 -31.333 -3.5 -48z" />
    <glyph glyph-name="e" unicode="e" horiz-adv-x="386" 
d="M106 167c0 -32.667 8.50098 -58.502 25.501 -77.502s41.167 -28.5 72.5 -28.5c21.333 0 38.833 3.16699 52.5 9.5s27.167 16.5 40.5 30.5l50 -46c-20 -19.333 -40.667 -34.166 -62 -44.499s-49 -15.5 -83 -15.5c-24 0 -46.5 3.33301 -67.5 10
s-39.167 17.834 -54.5 33.501s-27.5 35.834 -36.5 60.501s-13.5 55 -13.5 91c0 62 14.667 109.833 44 143.5s69 50.5 119 50.5c25.333 0 48.166 -4.5 68.499 -13.5s37.5 -21.5 51.5 -37.5s24.667 -35.333 32 -58s11 -47.334 11 -74.001v-34h-250zM280.001 220.998
c-0.666992 12 -2.5 23.999 -5.5 35.999s-7.66699 22.833 -14 32.5s-15 17.334 -26 23.001s-24.833 8.5 -41.5 8.5c-29.333 0 -51 -10 -65 -30s-21.333 -43.333 -22 -70h174z" />
    <glyph glyph-name="f" unicode="f" horiz-adv-x="210" 
d="M132 321l0.00195312 -321.001h-77v321h-43v59h43v64c0 14 2.16699 27.333 6.5 40s10.666 23.834 18.999 33.501s19.166 17.5 32.499 23.5s29 9 47 9h48v-66h-34c-28 0 -42 -14.333 -42 -43v-61h76v-59h-76z" />
    <glyph glyph-name="g" unicode="g" horiz-adv-x="401" 
d="M349 -21c0 -23.333 -3.66602 -44.6709 -10.999 -64.0039s-18.166 -36 -32.499 -50s-31.833 -25 -52.5 -33s-44.334 -12 -71.001 -12c-30 0 -55.5 3.66699 -76.5 11s-41.833 20 -62.5 38l49 49c13.333 -11.333 26.5 -19.833 39.5 -25.5s29.167 -8.5 48.5 -8.5
c16.667 0 30.834 2.66699 42.501 8s21.167 12.5 28.5 21.5s12.666 19.333 15.999 31s5 23.834 5 36.501v58c-14.667 -16 -30.334 -27.167 -47.001 -33.5s-35 -9.5 -55 -9.5c-28 0 -51 5.83301 -69 17.5s-32.167 27 -42.5 46s-17.5 40.5 -21.5 64.5s-6 48 -6 72
c0 22.667 1.83301 45.334 5.5 68.001s10.5 42.834 20.5 60.501s24.167 32 42.5 43s42.166 16.5 71.499 16.5c20.667 0 39.334 -3.66699 56.001 -11s32.667 -19.666 48 -36.999v44h74v-401zM272.001 195.995c0 15.333 -1.16699 30.166 -3.5 44.499s-6.5 27.166 -12.5 38.499
s-14.167 20.333 -24.5 27s-23.5 10 -39.5 10c-18 0 -32.5 -3.33301 -43.5 -10s-19.5 -15.667 -25.5 -27s-10 -24.166 -12 -38.499s-3 -29.166 -3 -44.499c0 -14.667 1 -29.834 3 -45.501s6 -29.834 12 -42.501s14.5 -23 25.5 -31s25.5 -12 43.5 -12c16 0 29.167 4 39.5 12
s18.5 18.333 24.5 31s10.167 26.834 12.5 42.501s3.5 30.834 3.5 45.501z" />
    <glyph glyph-name="h" unicode="h" horiz-adv-x="410" 
d="M284 0l-0.000976562 233c0 28.667 -7.33301 49.667 -22 63s-32.667 20 -54 20c-20.667 0 -38.667 -8.66699 -54 -26s-23 -39.333 -23 -66v-224h-77v550h77v-209c26.667 28.667 59 43 97 43c42.667 0 75.334 -12.833 98.001 -38.5s34 -59.5 34 -101.5v-244h-76z" />
    <glyph glyph-name="i" unicode="i" horiz-adv-x="188" 
d="M55 0v380h78v-380h-78zM47 510c0 13.333 4.5 24.5 13.5 33.5s20.167 13.5 33.5 13.5s24.5 -4.5 33.5 -13.5s13.5 -20.167 13.5 -33.5s-4.5 -24.5 -13.5 -33.5s-20.167 -13.5 -33.5 -13.5s-24.5 4.5 -33.5 13.5s-13.5 20.167 -13.5 33.5z" />
    <glyph glyph-name="j" unicode="j" horiz-adv-x="188" 
d="M133 -50c0 -28 -8.33203 -52.5 -24.999 -73.5s-43.334 -31.5 -80.001 -31.5h-47v65h34c15.333 0 25.833 3.66699 31.5 11s8.5 18.333 8.5 33v426h78v-430zM47.001 510c0 13.333 4.5 24.5 13.5 33.5s20.167 13.5 33.5 13.5s24.5 -4.5 33.5 -13.5s13.5 -20.167 13.5 -33.5
s-4.5 -24.5 -13.5 -33.5s-20.167 -13.5 -33.5 -13.5s-24.5 4.5 -33.5 13.5s-13.5 20.167 -13.5 33.5z" />
    <glyph glyph-name="k" unicode="k" horiz-adv-x="385" 
d="M292 0l-106 175l-55 -63v-112h-77v550h77v-346l146 176h93l-131 -150l148 -230h-95z" />
    <glyph glyph-name="l" unicode="l" horiz-adv-x="205" 
d="M157 0c-18 0 -33.5 2.83203 -46.5 8.49902s-23.833 13.334 -32.5 23.001s-15 20.667 -19 33s-6 25.5 -6 39.5v446h76v-441c0 -14.667 3 -25.667 9 -33s16.667 -11 32 -11h34v-65h-47z" />
    <glyph glyph-name="m" unicode="m" horiz-adv-x="661" 
d="M531 0l0.00195312 230.998c0 30 -8.16699 51.667 -24.5 65s-35.5 20 -57.5 20c-20.667 0 -38.834 -6.5 -54.501 -19.5s-23.5 -33.5 -23.5 -61.5v-235h-77v231c0 30 -8.16699 51.667 -24.5 65s-35.5 20 -57.5 20c-10 0 -19.833 -2.33301 -29.5 -7
s-18.334 -11.167 -26.001 -19.5s-13.834 -18.166 -18.501 -29.499s-7 -24 -7 -38v-222h-77v380h75v-43c12.667 15.333 28.5 27 47.5 35s38.167 12 57.5 12c23.333 0 45 -4.66699 65 -14s36 -23.333 48 -42c30.667 37.333 70.334 56 119.001 56c20 0 38.667 -3.5 56 -10.5
s32.333 -16.667 45 -29s22.667 -27.166 30 -44.499s11 -36.333 11 -57v-243h-77z" />
    <glyph glyph-name="n" unicode="n" horiz-adv-x="410" 
d="M128 380l-0.000976562 -43.001c13.333 16.667 28.666 28.667 45.999 36s35.333 11 54 11c40.667 0 73 -13.167 97 -39.5s36 -60.166 36 -101.499v-243h-77v231c0 30 -7.33301 51.667 -22 65s-32.667 20 -54 20c-10 0 -19.667 -2.33301 -29 -7
s-17.666 -11.167 -24.999 -19.5s-13.166 -18.333 -17.499 -30s-6.5 -24.167 -6.5 -37.5v-222h-77v380h75z" />
    <glyph glyph-name="o" unicode="o" horiz-adv-x="399" 
d="M364 190c0 -25.333 -2.83301 -49.667 -8.5 -73s-15 -44 -28 -62s-30.167 -32.5 -51.5 -43.5s-47.333 -16.5 -78 -16.5c-29.333 0 -54.5 5.16699 -75.5 15.5s-38 24.333 -51 42s-22.5 38.334 -28.5 62.001s-9 48.834 -9 75.501c0 24.667 2.66699 48.667 8 72
s14.5 44 27.5 62s29.833 32.5 50.5 43.5s46.667 16.5 78 16.5c30 0 55.5 -5 76.5 -15s38.167 -23.833 51.5 -41.5s23 -38.334 29 -62.001s9 -48.834 9 -75.501zM288 189.999c0 14 -1.16406 28.333 -3.49707 43s-6.83301 28.167 -13.5 40.5s-15.834 22.5 -27.501 30.5
s-26.834 12 -45.501 12c-17.333 0 -31.666 -3.66699 -42.999 -11s-20.333 -17 -27 -29s-11.167 -25.5 -13.5 -40.5s-3.5 -30.167 -3.5 -45.5c0 -14 1.16699 -28.333 3.5 -43s6.66602 -28.167 12.999 -40.5s15.166 -22.5 26.499 -30.5s26 -12 44 -12
c17.333 0 31.833 3.66699 43.5 11s21 17 28 29s11.833 25.5 14.5 40.5s4 30.167 4 45.5z" />
    <glyph glyph-name="p" unicode="p" horiz-adv-x="405" 
d="M374 190c0 -26 -2.16797 -50.666 -6.50098 -73.999s-11.666 -44 -21.999 -62s-24.666 -32.167 -42.999 -42.5s-41.5 -15.5 -69.5 -15.5c-20.667 0 -39.5 3 -56.5 9s-32.167 17.333 -45.5 34v-209h-78v550h76v-44c14 17.333 28.833 29.666 44.5 36.999s35.167 11 58.5 11
c30 0 54.167 -5.66699 72.5 -17s32.666 -26.333 42.999 -45s17.333 -39.5 21 -62.5s5.5 -46.167 5.5 -69.5zM295.999 190.001c0 16.667 -1.16895 32.667 -3.50195 48s-6.5 28.666 -12.5 39.999s-14.5 20.5 -25.5 27.5s-25.167 10.5 -42.5 10.5
c-16 0 -29.167 -3.5 -39.5 -10.5s-18.5 -16.167 -24.5 -27.5s-10.333 -24.666 -13 -39.999s-4 -31.333 -4 -48c0 -17.333 0.833008 -33.5 2.5 -48.5s5.33398 -28.333 11.001 -40s13.834 -20.834 24.501 -27.501s25 -10 43 -10c17.333 0 31.5 3.33301 42.5 10
s19.5 15.834 25.5 27.501s10.167 25 12.5 40s3.5 31.167 3.5 48.5z" />
    <glyph glyph-name="q" unicode="q" horiz-adv-x="405" 
d="M31 190c0 23.333 1.83105 46.499 5.49805 69.499s10.667 43.833 21 62.5s24.833 33.667 43.5 45s42.667 17 72 17c23.333 0 42.833 -3.66699 58.5 -11s30.5 -19.666 44.5 -36.999v44h77v-550h-78v209c-14 -16.667 -29.5 -28 -46.5 -34s-35.833 -9 -56.5 -9
c-28 0 -51.167 5.16699 -69.5 15.5s-32.666 24.5 -42.999 42.5s-17.666 38.667 -21.999 62s-6.5 48 -6.5 74zM108.998 189.999c0 -17.333 1.16602 -33.5 3.49902 -48.5s6.5 -28.333 12.5 -40s14.5 -20.834 25.5 -27.501s25.5 -10 43.5 -10c17.333 0 31.333 3.33301 42 10
s18.834 15.834 24.501 27.501s9.5 25 11.5 40s3 31.167 3 48.5c0 16.667 -1.33301 32.667 -4 48s-7 28.666 -13 39.999s-14.167 20.5 -24.5 27.5s-23.5 10.5 -39.5 10.5c-18 0 -32.5 -3.5 -43.5 -10.5s-19.5 -16.167 -25.5 -27.5s-10.167 -24.666 -12.5 -39.999
s-3.5 -31.333 -3.5 -48z" />
    <glyph glyph-name="r" unicode="r" horiz-adv-x="263" 
d="M241 307c-5.33301 3.33301 -10.832 5.66699 -16.499 7s-12.167 2 -19.5 2c-20.667 0 -38.334 -9.16699 -53.001 -27.5s-22 -40.833 -22 -67.5v-221h-77v380h75v-46c10 13.333 24 25 42 35s37.667 15 59 15c22 0 41.333 -4.33301 58 -13z" />
    <glyph glyph-name="s" unicode="s" horiz-adv-x="361" 
d="M328 116c0 -20 -3.83203 -37.5 -11.499 -52.5s-18.334 -27.5 -32.001 -37.5s-29.834 -17.667 -48.501 -23s-38.667 -8 -60 -8c-30 0 -57.667 3.66699 -83 11s-48.666 22 -69.999 44l48 51c15.333 -16 32 -26.833 50 -32.5s36.333 -8.5 55 -8.5
c22.667 0 41.667 4.33301 57 13s23 22 23 40c0 12.667 -3.83301 23 -11.5 31s-20.167 12.667 -37.5 14l-59 6c-34 2.66699 -60.5 12.167 -79.5 28.5s-28.5 41.5 -28.5 75.5c0 18.667 3.66699 35.167 11 49.5s17.166 26.5 29.499 36.5s26.833 17.5 43.5 22.5
s34.667 7.5 54 7.5c27.333 0 52.5 -3.33301 75.5 -10s43.167 -17.667 60.5 -33l-47 -49c-11.333 10.667 -24.666 18.167 -39.999 22.5s-31.666 6.5 -48.999 6.5c-22.667 0 -39.5 -4.66699 -50.5 -14s-16.5 -21 -16.5 -35c0 -11.333 3.66699 -21 11 -29
s20.666 -13 39.999 -15l58 -5c34 -3.33301 60.5 -13.5 79.5 -30.5s28.5 -42.5 28.5 -76.5z" />
    <glyph glyph-name="t" unicode="t" horiz-adv-x="226" 
d="M159 0c-18 0 -33.5 2.99902 -46.5 8.99902s-23.833 13.833 -32.5 23.5s-15 20.834 -19 33.501s-6 25.667 -6 39v216h-44v59h44v119h76v-119h73v-59h-73v-212c0 -13.333 3.5 -24 10.5 -32s17.5 -12 31.5 -12h31v-65h-45z" />
    <glyph glyph-name="u" unicode="u" horiz-adv-x="411" 
d="M283 0l-0.00195312 43c-13.333 -17.333 -28.666 -29.666 -45.999 -36.999s-35.666 -11 -54.999 -11c-20 0 -38.167 3.5 -54.5 10.5s-30.166 16.833 -41.499 29.5s-20.166 27.667 -26.499 45s-9.5 36.333 -9.5 57v243h77v-231c0 -30 7.33301 -51.667 22 -65
s32.667 -20 54 -20c10 0 19.667 2.33301 29 7s17.666 11.167 24.999 19.5s13.166 18.166 17.499 29.499s6.5 24 6.5 38v222h77v-380h-75z" />
    <glyph glyph-name="v" unicode="v" horiz-adv-x="364" 
d="M213 0h-62l-142 380h82l92 -268l90 268h82z" />
    <glyph glyph-name="w" unicode="w" horiz-adv-x="569" 
d="M439 0h-65l-90 265l-89 -265h-67l-119 380h82l75 -268l89 268h59l89 -268l74 268h83z" />
    <glyph glyph-name="x" unicode="x" horiz-adv-x="366" 
d="M262 0l-79 130l-81 -130h-91l130 194l-125 186h92l75 -124l74 124h92l-124 -186l129 -194h-92z" />
    <glyph glyph-name="y" unicode="y" horiz-adv-x="364" 
d="M178 -96c-8.66699 -24 -21.832 -42.499 -39.499 -55.499s-39.834 -19.5 -66.501 -19.5h-34v67h22c16 0 27.667 3.16699 35 9.5s14 17.166 20 32.499l29 80l-135 362h82l92 -268l90 268h82z" />
    <glyph glyph-name="z" unicode="z" horiz-adv-x="343" 
d="M30 0v60l189 251h-179v69h273v-61l-190 -251h190v-68h-283z" />
    <glyph glyph-name="braceleft" unicode="{" horiz-adv-x="249" 
d="M191 -55c-38 0 -65.001 8.33594 -81.001 25.0029c-10 10 -17 21.167 -21 33.5s-6 27.5 -6 45.5v127c0 19.333 -4.33301 34.333 -13 45c-4.66699 4 -9.83398 7.33301 -15.501 10s-12.834 4 -21.501 4h-28v68h28c8.66699 0 15.834 1.33301 21.501 4
s10.834 6.33398 15.501 11.001c8.66699 8.66699 13 23.667 13 45v140c0 33.333 9.33301 59.166 28 77.499s45.334 27.5 80.001 27.5h53v-68h-29c-20 0 -34.167 -4.33301 -42.5 -13s-12.5 -24.334 -12.5 -47.001v-135c0 -12.667 -1.5 -23.167 -4.5 -31.5
s-6.83301 -15.5 -11.5 -21.5s-10 -10.667 -16 -14s-12 -6.33301 -18 -9c6 -2.66699 12 -5.83398 18 -9.50098s11.333 -8.33398 16 -14.001s8.5 -12.667 11.5 -21s4.5 -18.5 4.5 -30.5v-123c0 -13.333 0.833008 -23.5 2.5 -30.5s4.5 -12.833 8.5 -17.5
c4 -4 9.33301 -6.66699 16 -8s16 -2 28 -2h29v-68h-53z" />
    <glyph glyph-name="bar" unicode="|" horiz-adv-x="249" 
d="M86 -55v662h77v-662h-77z" />
    <glyph glyph-name="braceright" unicode="}" horiz-adv-x="249" 
d="M3 -55v67.9961h29c23.333 0 38 3.33301 44 10c4.66699 4.66699 7.66699 10.5 9 17.5s2 17.167 2 30.5v123c0 12 1.5 22.167 4.5 30.5s6.83301 15.333 11.5 21s10 10.334 16 14.001s12 6.83398 18 9.50098c-6 2.66699 -12 5.66699 -18 9s-11.333 8 -16 14
s-8.5 13.167 -11.5 21.5s-4.5 18.833 -4.5 31.5v135c0 22.667 -4.16699 38.334 -12.5 47.001s-22.5 13 -42.5 13h-29v68h53c34.667 0 61.334 -9.16699 80.001 -27.5s28 -44.166 28 -77.499v-140c0 -22 4.66699 -37 14 -45c8.66699 -10 20.667 -15 36 -15h29v-68h-29
c-8.66699 0 -15.834 -1.33301 -21.501 -4s-10.5 -6 -14.5 -10c-9.33301 -10.667 -14 -25.667 -14 -45v-127c0 -18 -2 -33.167 -6 -45.5s-11 -23.5 -21 -33.5c-16 -16.667 -43 -25 -81 -25h-53z" />
    <glyph glyph-name="asciitilde" unicode="~" horiz-adv-x="424" 
d="M396 210c-15.333 -15.333 -30.333 -27.666 -45 -36.999s-29.667 -15.5 -45 -18.5s-31.666 -2.66699 -48.999 1s-36.333 10.5 -57 20.5c-12.667 6 -24.167 10.5 -34.5 13.5s-20.166 4 -29.499 3s-18.833 -4 -28.5 -9s-19.834 -12.5 -30.501 -22.5l-49 48
c16 15.333 31 27.666 45 36.999s28.5 15.5 43.5 18.5s31 2.66699 48 -1s36.5 -10.5 58.5 -20.5c23.333 -11.333 44.666 -16.5 63.999 -15.5s39.333 11.167 60 30.5l49 -48v0z" />
    <glyph glyph-name="uni00A0" unicode="&#xa0;" horiz-adv-x="209" 
 />
    <glyph glyph-name="cent" unicode="&#xa2;" horiz-adv-x="392" 
d="M338 145c-18 -24 -35.5 -41 -52.5 -51s-36.167 -15.667 -57.5 -17v-65h-58v68c-42 6 -73.667 24.667 -95 56s-32 72 -32 122s10.667 90.833 32 122.5s53 50.5 95 56.5v54h58v-52c18.667 -2 37 -8 55 -18s36.333 -25.667 55 -47l-46 -39c-22.667 28 -44 43.333 -64 46
v-247c11.333 2 22.333 7 33 15s21.667 18.667 33 32zM170 376c-24.667 -8 -41.667 -22.999 -51 -44.999s-14 -46.333 -14 -73c0 -12 1.16699 -23.833 3.5 -35.5s6 -22.834 11 -33.501s11.667 -20.167 20 -28.5s18.5 -14.833 30.5 -19.5v235z" />
    <glyph glyph-name="sterling" unicode="&#xa3;" horiz-adv-x="379" 
d="M54 0l-0.000976562 224.002h-48v62h48v62c0 49.333 15.5 88.666 46.5 117.999s73.5 44 127.5 44c53.333 0 101 -19.667 143 -59l-55 -50c-12.667 10.667 -25.5 20.167 -38.5 28.5s-29.5 12.5 -49.5 12.5c-31.333 0 -55.166 -8.83301 -71.499 -26.5
s-24.5 -42.834 -24.5 -75.501v-54h116v-62h-116v-155h231v-69h-309z" />
    <glyph glyph-name="yen" unicode="&#xa5;" horiz-adv-x="386" 
d="M279 295h82v-62h-114l-13 -25v-33h127v-62h-127v-113h-82v113h-128v62h128v33l-13 25h-115v62h83l-107 208h90l104 -214l102 214h90z" />
    <glyph glyph-name="copyright" unicode="&#xa9;" horiz-adv-x="641" 
d="M589 258c0 -37.333 -7 -72.333 -21 -105s-33 -61.167 -57 -85.5s-52.333 -43.5 -85 -57.5s-67.667 -21 -105 -21s-72.333 7 -105 21s-61.167 33.167 -85.5 57.5s-43.5 52.833 -57.5 85.5s-21 67.667 -21 105s7 72.333 21 105s33.167 61 57.5 85s52.833 43 85.5 57
s67.667 21 105 21s72.333 -7 105 -21s61 -33 85 -57s43 -52.333 57 -85s21 -67.667 21 -105zM526 258c0 28 -5.5 54.5 -16.5 79.5s-25.667 47 -44 66s-40 34 -65 45s-51.5 16.5 -79.5 16.5s-54.5 -5.5 -79.5 -16.5s-46.667 -26 -65 -45s-33 -41 -44 -66
s-16.5 -51.5 -16.5 -79.5s5.5 -54.5 16.5 -79.5s25.667 -47 44 -66s40 -34.167 65 -45.5s51.5 -17 79.5 -17s54.5 5.66699 79.5 17s46.667 26.5 65 45.5s33 41 44 66s16.5 51.5 16.5 79.5zM435 152c-19.333 -17.333 -36.502 -29.332 -51.502 -35.999s-33.167 -10 -54.5 -10
c-23.333 0 -43.333 4 -60 12s-30.334 19 -41.001 33s-18.667 30.167 -24 48.5s-8 37.833 -8 58.5c0 21.333 2.66699 41.333 8 60s13.333 35 24 49s24.334 25.167 41.001 33.5s36.667 12.5 60 12.5c20.667 0 39.334 -4.16699 56.001 -12.5s34.334 -20.5 53.001 -36.5l-40 -44
c-14.667 13.333 -27 22.333 -37 27s-20.667 7 -32 7c-13.333 0 -24.666 -2.66699 -33.999 -8s-16.833 -12.333 -22.5 -21s-9.66699 -18.834 -12 -30.501s-3.5 -23.834 -3.5 -36.501c0 -12 1.16699 -23.667 3.5 -35s6.33301 -21.333 12 -30s13.167 -15.5 22.5 -20.5
s20.666 -7.5 33.999 -7.5c11.333 0 22 2.33301 32 7s22.333 13.334 37 26.001l37 -42v-4z" />
    <glyph glyph-name="guillemotleft" unicode="&#xab;" horiz-adv-x="435" 
d="M217 204l172 171v-92l-81 -79l81 -81v-92zM27 204l173 171v-92l-81 -79l81 -81v-92z" />
    <glyph glyph-name="registered" unicode="&#xae;" horiz-adv-x="641" 
d="M589 258c0 -37.333 -7 -72.333 -21 -105s-33 -61.167 -57 -85.5s-52.333 -43.5 -85 -57.5s-67.667 -21 -105 -21s-72.333 7 -105 21s-61.167 33.167 -85.5 57.5s-43.5 52.833 -57.5 85.5s-21 67.667 -21 105s7 72.333 21 105s33.167 61 57.5 85s52.833 43 85.5 57
s67.667 21 105 21s72.333 -7 105 -21s61 -33 85 -57s43 -52.333 57 -85s21 -67.667 21 -105zM526 258c0 28 -5.5 54.5 -16.5 79.5s-25.667 47 -44 66s-40 34 -65 45s-51.5 16.5 -79.5 16.5s-54.5 -5.5 -79.5 -16.5s-46.667 -26 -65 -45s-33 -41 -44 -66
s-16.5 -51.5 -16.5 -79.5s5.5 -54.5 16.5 -79.5s25.667 -47 44 -66s40 -34.167 65 -45.5s51.5 -17 79.5 -17s54.5 5.66699 79.5 17s46.667 26.5 65 45.5s33 41 44 66s16.5 51.5 16.5 79.5zM375 109l-65 109.999h-18v-110h-61v296h101c12.667 0 24.834 -2.33301 36.501 -7
s22 -11.167 31 -19.5s16 -18.166 21 -29.499s7.5 -24 7.5 -38c0 -19.333 -4.83301 -36 -14.5 -50s-21.834 -25 -36.501 -33l35.5 -59l34.5 -60h-72zM369 310.999c0 10.667 -3.83301 19.333 -11.5 26s-17.167 10 -28.5 10h-37v-71h37c11.333 0 20.833 3.33301 28.5 10
s11.5 15 11.5 25z" />
    <glyph glyph-name="guillemotright" unicode="&#xbb;" horiz-adv-x="435" 
d="M46 31v92l81 81l-81 79v92l172 -171zM235 31v92l81 81l-81 79v92l173 -171z" />
    <glyph glyph-name="onequarter" unicode="&#xbc;" horiz-adv-x="588" 
d="M519 46v-46h-53v46h-126v37l118 224h57l-113 -216h64v81h53v-81h39v-45h-39zM186 0h-59l258 502h58zM102 195v243l-59 -46v55l66 55h46v-307h-53z" />
    <glyph glyph-name="onehalf" unicode="&#xbd;" horiz-adv-x="588" 
d="M362 0l0.00195312 40.0039l128 147c4.66699 5.33301 8 10.666 10 15.999s3 11.666 3 18.999c0 12.667 -3.83301 22.667 -11.5 30s-18.167 11 -31.5 11c-11.333 0 -21.5 -3.83301 -30.5 -11.5s-13.5 -21.167 -13.5 -40.5h-54c1.33301 29.333 10.666 53.166 27.999 71.499
s40.666 27.5 69.999 27.5s53 -8.16699 71 -24.5s27 -37.5 27 -63.5c0 -12.667 -2.5 -23.834 -7.5 -33.501s-12.167 -20.5 -21.5 -32.5l-96 -109h125v-47h-196zM178.002 0.00390625h-59l256 502h60zM102.002 195.004v243l-59 -46v55l66 55h46v-307h-53z" />
    <glyph glyph-name="threequarters" unicode="&#xbe;" horiz-adv-x="588" 
d="M529 46v-46h-54v46h-125v37l118 224h57l-113 -215h63v80h54v-80h37v-46h-37zM225 0h-60l260 502h59zM239 285c0 -31.333 -9.83203 -54.5 -29.499 -69.5s-43.834 -22.5 -72.501 -22.5c-28 0 -52.167 7.5 -72.5 22.5s-31.166 39.5 -32.499 73.5h53
c2 -18 8 -30.833 18 -38.5s21.333 -11.5 34 -11.5c13.333 0 24.833 4 34.5 12s14.5 19.333 14.5 34c0 13.333 -4.33301 24 -13 32s-21.667 12 -39 12h-16v47h16c30 0 45 13 45 39c0 14.667 -4.33301 25.5 -13 32.5s-18.667 10.5 -30 10.5c-28 0 -43.667 -15.667 -47 -47h-54
c3.33301 30 14.166 53.333 32.499 70s41.166 25 68.499 25c28.667 0 52.167 -8 70.5 -24s27.5 -38 27.5 -66c0 -13.333 -2.66699 -25.166 -8 -35.499s-12.666 -19.5 -21.999 -27.5c23.333 -14.667 35 -37.334 35 -68.001z" />
    <glyph glyph-name="multiply" unicode="&#xd7;" horiz-adv-x="424" 
d="M334 35l-123 122l-121 -122l-51 51l123 122l-123 122l51 50l121 -122l123 122l50 -50l-122 -122l122 -122z" />
    <glyph glyph-name="divide" unicode="&#xf7;" horiz-adv-x="405" 
d="M29 171v72h346v-72h-346zM156 349c0 13.333 4.5 24.5 13.5 33.5s20.167 13.5 33.5 13.5s24.5 -4.5 33.5 -13.5s13.5 -20.167 13.5 -33.5s-4.5 -24.5 -13.5 -33.5s-20.167 -13.5 -33.5 -13.5s-24.5 4.5 -33.5 13.5s-13.5 20.167 -13.5 33.5zM156 68
c0 13.333 4.5 24.5 13.5 33.5s20.167 13.5 33.5 13.5s24.5 -4.5 33.5 -13.5s13.5 -20.167 13.5 -33.5s-4.5 -24.5 -13.5 -33.5s-20.167 -13.5 -33.5 -13.5s-24.5 4.5 -33.5 13.5s-13.5 20.167 -13.5 33.5z" />
    <glyph glyph-name="kokaithai" unicode="&#xe01;" horiz-adv-x="447" 
d="M138 256l0.00292969 -255.999h-80v238l-39 54c23.333 38.667 50.833 67.667 82.5 87s69.167 29 112.5 29c60.667 0 106 -13.833 136 -41.5s45 -67.167 45 -118.5v-248h-80v242c0 34.667 -8.83301 59.167 -26.5 73.5s-42.834 21.5 -75.501 21.5
c-16.667 0 -33.834 -3.33301 -51.501 -10s-33.834 -17.334 -48.501 -32.001z" />
    <glyph glyph-name="khokhaithai" unicode="&#xe02;" horiz-adv-x="385" 
d="M20 351c13.333 17.333 28.6641 30.999 45.9971 40.999s34.333 15 51 15c30 0 53.667 -7.83301 71 -23.5s26 -37.167 26 -64.5c0 -20 -5.66699 -37.167 -17 -51.5s-23.666 -27.833 -36.999 -40.5c-11.333 -10.667 -19.666 -19.667 -24.999 -27s-8 -18 -8 -32v-36
c0 -20.667 4.83301 -37 14.5 -49s26.167 -18 49.5 -18c21.333 0 36.833 6 46.5 18s14.5 28.333 14.5 49v272h81v-274c0 -40 -13.167 -72.5 -39.5 -97.5s-60.5 -37.5 -102.5 -37.5c-44 0 -78.833 12.5 -104.5 37.5s-39.167 57.5 -40.5 97.5v45c0 21.333 4 37.833 12 49.5
s18.667 23.834 32 36.501c12 11.333 22.5 21.666 31.5 30.999s13.5 18.333 13.5 27c0 11.333 -6.66699 17 -20 17c-4 0 -8.66699 -2.16699 -14 -6.5s-10.666 -10.166 -15.999 -17.499z" />
    <glyph glyph-name="khokhuatthai" unicode="&#xe03;" horiz-adv-x="385" 
d="M126 132c0 -20 4.99707 -36 14.9971 -48s26.333 -18 49 -18c22 0 37.667 6 47 18s14 28 14 48v272h82v-274c0 -40 -13.167 -72.5 -39.5 -97.5s-60.833 -37.5 -103.5 -37.5c-43.333 0 -77.833 12.5 -103.5 37.5s-39.167 57.5 -40.5 97.5v40c0 12 1.5 23.333 4.5 34
s8.83301 20 17.5 28l79 77c7.33301 6.66699 11 13.334 11 20.001s-3.33301 10 -10 10c-3.33301 0 -6.66602 -0.666992 -9.99902 -2s-7.33301 -4 -12 -8l-21 -17c-6 -4.66699 -13 -6.83398 -21 -6.50098s-14.667 2.16602 -20 5.49902l-71 51l48 52l44 -29
c0.666992 0 1.33398 0.333008 2.00098 1c18.667 14 39.667 21 63 21c24 0 43.833 -7.16699 59.5 -21.5s23.5 -32.833 23.5 -55.5c0 -13.333 -3.16699 -26.666 -9.5 -39.999s-16.166 -26.333 -29.499 -39l-61 -59c-3.33301 -3.33301 -5.33301 -8.5 -6 -15.5
s-1 -11.167 -1 -12.5v-32z" />
    <glyph glyph-name="khokhwaithai" unicode="&#xe04;" horiz-adv-x="455" 
d="M131 0h-80.001v253c0 24 4.16699 45.833 12.5 65.5s19.833 36.167 34.5 49.5c16.667 16 37 26.667 61 32s46.667 8 68 8s44 -2.66699 68 -8s44.333 -16 61 -32c14.667 -13.333 26.167 -29.833 34.5 -49.5s12.5 -41.5 12.5 -65.5v-253h-80v246
c0 32 -8.5 55.167 -25.5 69.5s-40.5 21.5 -70.5 21.5s-53.167 -6.83301 -69.5 -20.5s-25.166 -35.5 -26.499 -65.5v-15c8.66699 2 19.667 3 33 3h67v-66h-59c-16 0 -26.833 -3.5 -32.5 -10.5s-8.5 -17.5 -8.5 -31.5v-131z" />
    <glyph glyph-name="khokhonthai" unicode="&#xe05;" horiz-adv-x="469" 
d="M52 258c0 24 4.16797 45.834 12.501 65.501s19.833 36.167 34.5 49.5c9.33301 8 20.666 15 33.999 21s28 11 44 15l57 -58l56 58c16 -3.33301 30.833 -8.16602 44.5 -14.499s25.167 -13.5 34.5 -21.5c32 -28.667 48 -67 48 -115v-258h-80v250c0 16 -2.5 30.667 -7.5 44
s-12.167 23.666 -21.5 30.999l-44 -44c-8 -8 -17.833 -11.833 -29.5 -11.5s-21.167 4.16602 -28.5 11.499l-45 44c-9.33301 -7.33301 -16.5 -17.5 -21.5 -30.5s-7.5 -27.833 -7.5 -44.5v-19c8.66699 2 19.667 3 33 3h67v-66h-59c-16 0 -26.833 -3.5 -32.5 -10.5
s-8.5 -17.5 -8.5 -31.5v-126h-80v258z" />
    <glyph glyph-name="khorakhangthai" unicode="&#xe06;" horiz-adv-x="439" 
d="M130 159c0 -29.333 7.99707 -52.002 23.9971 -68.002s37.333 -24 64 -24c58.667 0 88 30.667 88 92v245h81v-254c0 -48.667 -16 -87 -48 -115c-27.333 -26 -65.666 -39 -114.999 -39c-19.333 0 -36.833 3.83301 -52.5 11.5s-29.167 17.167 -40.5 28.5v-36h-81v170
c0 13.333 2 25.5 6 36.5s10 20.167 18 27.5l17.5 17l21.5 21l21 21c6.66699 6.66699 12.667 12.334 18 17.001c7.33301 6.66699 11 13 11 19c0 6.66699 -3.33301 10 -10 10c-6 0 -13.333 -3.33301 -22 -10l-21 -17c-6 -4.66699 -13 -6.83398 -21 -6.50098
s-14.667 2.16602 -20 5.49902l-71 51l48 52l44 -29c0.666992 0 1.33398 0.333008 2.00098 1c18.667 14 39.667 21 63 21c24 0 43.833 -7.16699 59.5 -21.5s23.5 -32.833 23.5 -55.5c0 -13.333 -3.16699 -26.666 -9.5 -39.999s-16.166 -26.333 -29.499 -39l-61 -60
c-4 -3.33301 -6.33301 -8.16602 -7 -14.499s-1 -11.166 -1 -14.499v-3z" />
    <glyph glyph-name="ngonguthai" unicode="&#xe07;" horiz-adv-x="319" 
d="M55 128c6 -20 15.001 -35.502 27.001 -46.502s26 -16.5 42 -16.5c22 0 37.833 6 47.5 18s14.5 28.333 14.5 49v204h-56v68h137v-274c0 -43.333 -12.333 -76.666 -37 -99.999s-60 -35 -106 -35c-36.667 0 -66.334 8.83301 -89.001 26.5s-40 41.834 -52 72.501z" />
    <glyph glyph-name="chochanthai" unicode="&#xe08;" horiz-adv-x="377" 
d="M244 126c0 14 -2.66895 24.5 -8.00195 31.5s-15.666 10.5 -30.999 10.5h-66v69h67c13.333 0 26 -3 38 -9v23c-3.33301 57.333 -33.333 86 -90 86c-19.333 0 -37.666 -5.33301 -54.999 -16s-30 -27.334 -38 -50.001l-71 38c14.667 32.667 36.167 57.334 64.5 74.001
s61.5 25 99.5 25c50 0 91 -13 123 -39s48 -64.667 48 -116v-253h-81v126z" />
    <glyph glyph-name="chochingthai" unicode="&#xe09;" horiz-adv-x="439" 
d="M45 311c14.667 32.667 36.665 57.002 65.998 73.002s63 24 101 24c24.667 0 47.834 -3.16699 69.501 -9.5s40.167 -16 55.5 -29s27.5 -29 36.5 -48s13.5 -41.5 13.5 -67.5v-254h-81v38c-11.333 -12 -24.666 -22 -39.999 -30s-33.666 -12 -54.999 -12
c-50 0 -89 13 -117 39c-31.333 28 -47 66.333 -47 115v86h81v-77c0 -30 7.5 -53 22.5 -69s36.833 -24 65.5 -24c27.333 0 49.166 8.16699 65.499 24.5s24.5 39.166 24.5 68.499v87c0 61.333 -31.333 92 -94 92c-19.333 0 -37.833 -4.83301 -55.5 -14.5
s-31.167 -24.834 -40.5 -45.501z" />
    <glyph glyph-name="chochangthai" unicode="&#xe0a;" horiz-adv-x="408" 
d="M130 292c4 4.66699 7.33008 9.00098 9.99707 13.001s4 8 4 12c0 7.33301 -2.33301 12.833 -7 16.5s-10.334 5.16699 -17.001 4.5c-6 -0.666992 -12.833 -3.5 -20.5 -8.5s-15.167 -10.167 -22.5 -15.5l-60 41c34.667 34 69.334 51 104.001 51c30 0 54 -8 72 -24
s27 -37.667 27 -65c0 -13.333 -3 -25.666 -9 -36.999s-14.333 -23.333 -25 -36l-43 -51c-3.33301 -3.33301 -5.33301 -7.5 -6 -12.5s-1 -10.5 -1 -16.5v-23c0 -20.667 5.83301 -38.334 17.5 -53.001s28.834 -22 51.501 -22c22 0 38.667 5.83301 50 17.5s17 27.834 17 48.501
v138c0 7.33301 -3 13.833 -9 19.5s-11.667 10.167 -17 13.5c-5.33301 2 -10 4.33301 -14 7s-6.66699 6 -8 10s-0.833008 8.66699 1.5 14s7.5 11.666 15.5 18.999l119 114l56 -52l-90 -84c6.66699 -6 12.834 -14.333 18.501 -25s8.5 -22.667 8.5 -36v-140
c0 -20 -3.66699 -38.167 -11 -54.5s-17.666 -30.5 -30.999 -42.5s-29 -21.333 -47 -28s-37.667 -10 -59 -10c-22 0 -42 3.83301 -60 11.5s-33.5 18 -46.5 31s-23.167 28.167 -30.5 45.5s-11.333 36 -12 56v36c0 13.333 1.83301 24.666 5.5 33.999s9.16699 18 16.5 26z" />
    <glyph glyph-name="sosothai" unicode="&#xe0b;" horiz-adv-x="430" 
d="M295 270c0 7.33301 -3.17188 13.834 -9.50488 19.501s-12.166 10.167 -17.499 13.5c-5.33301 2.66699 -10.166 5.5 -14.499 8.5s-7.16602 6.33301 -8.49902 10s-0.833008 8 1.5 13s7.5 11.167 15.5 18.5l117 113l55 -49l-86 -84c6.66699 -6 12.834 -14.333 18.501 -25
s8.5 -23.334 8.5 -38.001v-140c0 -20 -4 -38.333 -12 -55s-18.833 -30.834 -32.5 -42.501s-29.667 -20.834 -48 -27.501s-38.166 -10 -59.499 -10c-22 0 -42.333 3.83301 -61 11.5s-34.834 18 -48.501 31s-24.5 28.167 -32.5 45.5s-12 36 -12 56v31
c0 16 2.16699 28.667 6.5 38s10.166 18 17.499 26l58 65c4 5.33301 7 9.66602 9 12.999s3 7 3 11s-1.33301 7.5 -4 10.5s-5.66699 4.5 -9 4.5c-6 0 -13 -3.33301 -21 -10l-20 -17c-5.33301 -4 -12.166 -6 -20.499 -6s-15.166 1.66699 -20.499 5l-72 52l48 51l44 -29
c10 8 20.5 13.833 31.5 17.5s21.833 5.5 32.5 5.5c24.667 0 45.5 -8.16699 62.5 -24.5s25.5 -36.166 25.5 -59.499c0 -12.667 -4.5 -26 -13.5 -40s-18.833 -27.667 -29.5 -41l-40 -49c-2.66699 -3.33301 -4.66699 -7.16602 -6 -11.499s-2 -10.166 -2 -17.499v-23
c0 -20.667 6.66699 -38.334 20 -53.001s31.333 -22 54 -22c22 0 39.5 5.83301 52.5 17.5s19.5 27.834 19.5 48.501v138z" />
    <glyph glyph-name="chochoethai" unicode="&#xe0c;" horiz-adv-x="685" 
d="M61 238l-39.002 54.001c23.333 38.667 51 67.667 83 87s69.333 29 112 29c61.333 0 106.833 -13.833 136.5 -41.5s44.5 -67.167 44.5 -118.5v-89c0 -28.667 7.66699 -51.334 23 -68.001s34 -25 56 -25c24 0 42.667 8.16699 56 24.5s20 39.166 20 68.499v245h80v-254
c0 -25.333 -3.66699 -47.666 -11 -66.999s-17.666 -35.5 -30.999 -48.5s-29.166 -22.667 -47.499 -29s-38.5 -9.5 -60.5 -9.5c-16 0 -31.333 3.66699 -46 11s-27.667 17 -39 29v-36h-80v242c0 34.667 -8.83301 59.167 -26.5 73.5s-42.834 21.5 -75.501 21.5
c-17.333 0 -34.666 -3.16699 -51.999 -9.5s-33.666 -17.5 -48.999 -33.5c4 -7.33301 8.33301 -14 13 -20s9 -12 13 -18v-153c0 -9.33301 1.5 -16.833 4.5 -22.5s9.5 -8.5 19.5 -8.5h40v-72h-48c-34.667 0 -59.334 9 -74.001 27s-22 43 -22 75v136z" />
    <glyph glyph-name="yoyingthai" unicode="&#xe0d;" horiz-adv-x="678" 
d="M392 0c0 -9.33301 1.16797 -16.333 3.50098 -21s5.16602 -7 8.49902 -7h219v-68h-229c-9.33301 0 -18.666 1.16699 -27.999 3.5s-17.833 7 -25.5 14s-13.834 16.833 -18.501 29.5s-7 29 -7 49h77zM61.001 238l-38.9971 53.999c23.333 38.667 51 67.667 83 87
s69.333 29 112 29c61.333 0 106.833 -14 136.5 -42s44.5 -67.333 44.5 -118v-65c0 -30 6.16699 -53 18.5 -69s30.166 -24 53.499 -24c24 0 42.667 8 56 24s20 39 20 69v221h80v-229c0 -21.333 -2.83301 -41.333 -8.5 -60s-14.834 -35 -27.501 -49s-28.667 -25.167 -48 -33.5
s-42.666 -12.5 -69.999 -12.5c-51.333 0 -89.833 13.333 -115.5 40s-38.5 65 -38.5 115v67c0 34.667 -8.83301 59 -26.5 73s-42.834 21 -75.501 21c-17.333 0 -34.833 -3.16699 -52.5 -9.5s-34.167 -17.166 -49.5 -32.499l27 -39v-152c0 -9.33301 1.5 -16.833 4.5 -22.5
s9.5 -8.5 19.5 -8.5h40v-72h-48c-34.667 0 -59.334 9 -74.001 27s-22 43 -22 75v136z" />
    <glyph glyph-name="dochadathai" unicode="&#xe0e;" horiz-adv-x="464" 
d="M155 101c0 -23.333 -4.33496 -41.6699 -13.002 -55.0029s-19.167 -23.5 -31.5 -30.5s-25.333 -11.5 -39 -13.5s-25.5 -3 -35.5 -3l-15 72c14 -0.666992 24.5 0.166016 31.5 2.49902s12.167 5.5 15.5 9.5s5.16602 8.5 5.49902 13.5s0.5 9.5 0.5 13.5v129l-38 54
c46 76.667 111 115 195 115c60.667 0 105.834 -13.667 135.501 -41s44.834 -66.666 45.501 -117.999v-327c0 -12 -1.83301 -22.333 -5.5 -31s-7.83398 -16 -12.501 -22s-9.66699 -10.667 -15 -14s-9.33301 -5.66602 -12 -6.99902c-8 -3.33301 -17.667 -5.16602 -29 -5.49902
s-21.666 1.5 -30.999 5.5l-87 38c-2.66699 1.33301 -5 1.33301 -7 0l-103 -50l-45 54l127 61c9.33301 4.66699 17.166 7 23.499 7s14.833 -2.33301 25.5 -7l82 -35c1.33301 -0.666992 3 -0.5 5 0.5s3 3.16699 3 6.5v319c0 34.667 -8.66699 59.334 -26 74.001
s-42.333 22 -75 22c-17.333 0 -34.666 -3 -51.999 -9s-33.666 -16.667 -48.999 -32l26 -38v-158z" />
    <glyph glyph-name="topatakthai" unicode="&#xe0f;" horiz-adv-x="464" 
d="M331 243c0 34.667 -8.66797 59.168 -26.001 73.501s-42.333 21.5 -75 21.5c-17.333 0 -34.666 -3 -51.999 -9s-33.666 -16.667 -48.999 -32l26 -37v-159c0 -23.333 -4.33301 -41.666 -13 -54.999s-19.167 -23.5 -31.5 -30.5s-25.333 -11.5 -39 -13.5s-25.5 -3 -35.5 -3
l-15 73c14 -0.666992 24.5 0.166016 31.5 2.49902s12.167 5.5 15.5 9.5s5.16602 8.33301 5.49902 13s0.5 9 0.5 13v129l-38 54c46 76.667 111 115 195 115c60.667 0 105.834 -13.667 135.501 -41s44.834 -66.666 45.501 -117.999v-327c0 -10 -1.83301 -19.833 -5.5 -29.5
s-8.83398 -18.334 -15.501 -26.001s-14.5 -13.834 -23.5 -18.501s-18.833 -7 -29.5 -7c-11.333 0 -22.333 3 -33 9l-60 33c-4 2 -7.66699 2 -11 0l-55 -33c-10.667 -6 -20.5 -8.5 -29.5 -7.5s-17.167 3.83301 -24.5 8.5l-103 71l68 39l58 -40
c4.66699 -3.33301 9.66699 -3.33301 15 0l50 31c9.33301 6 18.166 8.66699 26.499 8s16.833 -3.33398 25.5 -8.00098l59 -33c2 -1.33301 3.66699 -1.16602 5 0.500977s2 3.5 2 5.5v318z" />
    <glyph glyph-name="thothanthai" unicode="&#xe10;" horiz-adv-x="380" 
d="M242 -32l80.998 -0.00195312v-39c0 -15.333 -2.66699 -28.166 -8 -38.499s-11.333 -18.5 -18 -24.5s-13.167 -10.167 -19.5 -12.5s-10.5 -3.83301 -12.5 -4.5c-8.66699 -2 -17.5 -2.66699 -26.5 -2s-17.5 4.33398 -25.5 11.001l-31 24c-2.66699 2 -5 2 -7 0l-25 -22
c-8 -7.33301 -18.167 -11 -30.5 -11s-23.166 3.33301 -32.499 10l-84 62l58 41l54 -40c2 -2 4 -2 6 0l23 22c10.667 8.66699 22 13 34 13c12.667 0 24.334 -4.33301 35.001 -13l25 -22c2.66699 -1.33301 4 -0.333008 4 3v43zM243.998 125.998
c0 14 -2.66797 24.5 -8.00098 31.5s-15.666 10.5 -30.999 10.5h-66v69h67c13.333 0 26 -3 38 -9v23c-3.33301 57.333 -33.333 86 -90 86c-19.333 0 -37.333 -5.5 -54 -16.5s-29 -27.5 -37 -49.5l-75 34c15.333 34 37.333 59.667 66 77s62 26 100 26
c17.333 0 32.5 -1.33301 45.5 -4s26.167 -7 39.5 -13l82 77l57 -52l-80 -73c18 -24 27 -54 27 -90v-253h-81v126z" />
    <glyph glyph-name="thonangmonthothai" unicode="&#xe11;" horiz-adv-x="451" 
d="M142 193c-3.33301 -3.33301 -5.33203 -8.50195 -5.99902 -15.502s-1 -11.5 -1 -13.5v-164h-81v171c0 26 7.66699 46.333 23 61l79 77c2.66699 2.66699 5.16699 5.66699 7.5 9s3.5 7 3.5 11c0 6.66699 -3.33301 10 -10 10c-6 0 -13.333 -3.33301 -22 -10l-22 -17
c-6 -4 -12.833 -6.16699 -20.5 -6.5s-14.167 1.5 -19.5 5.5l-73 53l51 49l41 -28c12.667 8.66699 24.5 14.834 35.5 18.501s21.833 5.5 32.5 5.5c14 0 26.833 -2.83301 38.5 -8.5s21.167 -13.834 28.5 -24.501l37 33c41.333 -0.666992 74.166 -11.667 98.499 -33
s36.5 -52.666 36.5 -93.999v-282h-80v279c0 14.667 -1.83301 26.834 -5.5 36.501s-11.167 16.167 -22.5 19.5z" />
    <glyph glyph-name="thophuthaothai" unicode="&#xe12;" horiz-adv-x="685" 
d="M322 250c0 33.333 -9.66406 58 -28.9971 74l-37 -36c-7.33301 -7.33301 -17.166 -11 -29.499 -11s-22.166 3.66699 -29.499 11l-36 36c-9.33301 -7.33301 -16.5 -17.333 -21.5 -30s-7.5 -27.334 -7.5 -44.001v-135c0 -14.667 2.66699 -25.5 8 -32.5
s15.666 -10.5 30.999 -10.5h37v-72h-44c-38 0 -66.333 10.333 -85 31s-28 48.334 -28 83.001v144c0 24 4.16699 45.833 12.5 65.5s20.166 36.167 35.499 49.5c9.33301 8.66699 20.666 15.834 33.999 21.501s27.666 10.167 42.999 13.5l50 -49l49 49
c32.667 -6 59 -17.667 79 -35c31.333 -28 47 -66.333 47 -115v-99c0 -28 7.66699 -50.5 23 -67.5s34.333 -25.5 57 -25.5c23.333 0 41.166 8.16699 53.499 24.5s18.5 39.166 18.5 68.499v245h80v-254c0 -51.333 -13.333 -89.833 -40 -115.5s-62 -38.5 -106 -38.5
c-16 0 -31.833 4 -47.5 12s-28.5 17.333 -38.5 28v-36h-79v250z" />
    <glyph glyph-name="nonenthai" unicode="&#xe13;" horiz-adv-x="682" 
d="M61 239l-38.998 53.9971c46.667 76.667 111.667 115 195 115c61.333 0 106.833 -13.667 136.5 -41s44.5 -66.666 44.5 -117.999v-90c0 -29.333 6.16699 -52.166 18.5 -68.499s30.5 -24.5 54.5 -24.5c21.333 0 39.833 8.33301 55.5 25s23.5 39.334 23.5 68.001v245h80
v-404h-80v36c-12.667 -12.667 -25.834 -22.5 -39.501 -29.5s-28.834 -10.5 -45.501 -10.5c-44 0 -79.5 12.833 -106.5 38.5s-40.5 64.167 -40.5 115.5v93c0 34.667 -8.83301 59.167 -26.5 73.5s-42.834 21.5 -75.501 21.5c-17.333 0 -34.666 -3.16699 -51.999 -9.5
s-33.666 -17.5 -48.999 -33.5c4 -7.33301 8.33301 -14 13 -20s9 -12 13 -18v-154c0 -9.33301 1.5 -16.833 4.5 -22.5s9.5 -8.5 19.5 -8.5h40v-72h-48c-34.667 0 -59.334 9 -74.001 27s-22 43 -22 75v137z" />
    <glyph glyph-name="dodekthai" unicode="&#xe14;" horiz-adv-x="455" 
d="M51 253c0 24 4.16699 45.832 12.5 65.499s19.833 36.167 34.5 49.5c16.667 16 37 26.667 61 32s46.667 8 68 8s44 -2.66699 68 -8s44.333 -16 61 -32c14.667 -13.333 26.167 -29.833 34.5 -49.5s12.5 -41.5 12.5 -65.5v-253h-80v246c0 32 -8.5 55.167 -25.5 69.5
s-40.5 21.5 -70.5 21.5s-53.5 -7.16699 -70.5 -21.5s-25.5 -37.5 -25.5 -69.5v-131c0 -14 3 -24.667 9 -32s16.667 -11 32 -11h36v-72h-43c-38 0 -66.5 10.333 -85.5 31s-28.5 48.334 -28.5 83.001v139z" />
    <glyph glyph-name="totaothai" unicode="&#xe15;" horiz-adv-x="469" 
d="M161 325c-9.33301 -7.33301 -16.5 -17.5 -21.5 -30.5s-7.5 -27.833 -7.5 -44.5v-135c0 -14 2.83301 -24.667 8.5 -32s16.167 -11 31.5 -11h36v-72h-43c-38 -0 -66.5 10.333 -85.5 31s-28.5 48.334 -28.5 83.001v144c0 24 4.33301 45.833 13 65.5
s20.334 36.167 35.001 49.5c9.33301 8 20.666 15 33.999 21s28 11 44 15l57 -58l56 58c16 -3.33301 30.833 -8.16602 44.5 -14.499s25.167 -13.5 34.5 -21.5c32 -28.667 48 -67 48 -115v-258h-80v250c0 16 -2.5 30.667 -7.5 44s-12.167 23.666 -21.5 30.999l-44 -44
c-8 -8 -17.833 -11.833 -29.5 -11.5s-21.167 4.16602 -28.5 11.499z" />
    <glyph glyph-name="thothungthai" unicode="&#xe16;" horiz-adv-x="446" 
d="M137 103c0 -9.33301 1.66797 -16.833 5.00098 -22.5s10 -8.5 20 -8.5h40v-72h-48c-34.667 0 -59.334 9 -74.001 27s-22 43 -22 75v136l-39 54c23.333 38.667 50.833 67.667 82.5 87s69.167 29 112.5 29c60.667 0 105.834 -13.833 135.501 -41.5s44.5 -67.167 44.5 -118.5
v-248h-79v242c0 34.667 -8.83301 59.167 -26.5 73.5s-42.834 21.5 -75.501 21.5c-17.333 0 -34.833 -3.16699 -52.5 -9.5s-34.167 -17.5 -49.5 -33.5l13.5 -19.5l12.5 -18.5v-153z" />
    <glyph glyph-name="thothahanthai" unicode="&#xe17;" horiz-adv-x="433" 
d="M132 404v-46c14.667 18 31.167 31 49.5 39s37.5 12 57.5 12c21.333 0 40.833 -3.66699 58.5 -11s32.667 -17.833 45 -31.5s21.833 -29.667 28.5 -48s10 -38.5 10 -60.5v-258h-82v246c0 32 -8 55 -24 69s-35.333 21 -58 21c-10 0 -20 -2.5 -30 -7.5s-19 -12 -27 -21
s-14.333 -19.5 -19 -31.5s-7 -25.333 -7 -40v-236h-82v404h80z" />
    <glyph glyph-name="thothongthai" unicode="&#xe18;" horiz-adv-x="409" 
d="M49 181l79 0.00488281v-79c0 -10.667 7 -19.334 21 -26.001s29.333 -10 46 -10c32 0 56.333 6.16699 73 18.5s25 28.166 25 47.499c0 13.333 -4.5 24.833 -13.5 34.5s-23.167 15.167 -42.5 16.5l-66 7c-42.667 4 -75.834 15 -99.501 33s-35.5 42.333 -35.5 73
c0 16.667 4 32 12 46s19 25.833 33 35.5s30.667 17.167 50 22.5s40.666 8 63.999 8c29.333 0 58.333 -4.83301 87 -14.5s55.667 -23.5 81 -41.5l-55 -51c-18.667 12 -37.167 21.167 -55.5 27.5s-37.5 9.5 -57.5 9.5c-24 0 -43.333 -3.5 -58 -10.5s-22 -17.5 -22 -31.5
c0 -20.667 21 -32.334 63 -35.001l64 -6c18 -2 34.833 -5.66699 50.5 -11s29.5 -12.833 41.5 -22.5s21.5 -21.834 28.5 -36.501s10.5 -32.334 10.5 -53.001c0 -19.333 -4.16699 -37.333 -12.5 -54s-20.166 -31.167 -35.499 -43.5s-33.833 -22 -55.5 -29
s-46.167 -10.5 -73.5 -10.5c-16.667 0 -33.667 2.16699 -51 6.5s-33.166 10.833 -47.499 19.5s-26 19.667 -35 33s-13.5 29 -13.5 47v80z" />
    <glyph glyph-name="nonuthai" unicode="&#xe19;" horiz-adv-x="432" 
d="M300 0l-0.00292969 46c-14.667 -18 -31.167 -31 -49.5 -39s-37.5 -12 -57.5 -12c-21.333 0 -40.666 3.66699 -57.999 11s-32.166 17.833 -44.499 31.5s-21.833 29.667 -28.5 48s-10 38.5 -10 60.5v258h82v-246c0 -32 7.83301 -55 23.5 -69s34.834 -21 57.501 -21
c10 0 20 2.5 30 7.5s19 12 27 21s14.333 19.5 19 31.5s7 25.333 7 40v236h82v-404h-80z" />
    <glyph glyph-name="bobaimaithai" unicode="&#xe1a;" horiz-adv-x="434" 
d="M217 -4c-49.333 0 -89.168 13.167 -119.501 39.5s-45.5 64.5 -45.5 114.5v254h81v-246c0 -30 6.83301 -52.833 20.5 -68.5s34.834 -23.5 63.501 -23.5s49.834 7.83301 63.501 23.5s20.5 38.5 20.5 68.5v246h81v-254c0 -50 -15.333 -88.167 -46 -114.5
s-70.334 -39.5 -119.001 -39.5z" />
    <glyph glyph-name="poplathai" unicode="&#xe1b;" horiz-adv-x="434" 
d="M217 -4c-49.333 0 -89.168 13.167 -119.501 39.5s-45.5 64.5 -45.5 114.5v254h81v-246c0 -30 6.83301 -52.833 20.5 -68.5s34.834 -23.5 63.501 -23.5s49.834 7.83301 63.501 23.5s20.5 38.5 20.5 68.5v440h81v-448c0 -50 -15.333 -88.167 -46 -114.5
s-70.334 -39.5 -119.001 -39.5z" />
    <glyph glyph-name="phophungthai" unicode="&#xe1c;" horiz-adv-x="470" 
d="M207 123c7.33301 7.33301 16.833 11.166 28.5 11.499s21.5 -3.5 29.5 -11.5l44 -44c9.33301 7.33301 16.5 17.666 21.5 30.999s7.5 28 7.5 44v250h80v-258c0 -48 -16 -86.333 -48 -115c-9.33301 -8 -20.833 -15.167 -34.5 -21.5s-28.5 -11.166 -44.5 -14.499l-56 58
l-57 -58c-16 4 -30.667 9 -44 15s-24.666 13 -33.999 21c-14.667 13.333 -26.334 29.833 -35.001 49.5s-13 41.5 -13 65.5v144c0 34.667 9.5 62.334 28.5 83.001s47.5 31 85.5 31h43v-72h-36c-15.333 0 -25.833 -3.66699 -31.5 -11s-8.5 -18 -8.5 -32v-135
c0 -16.667 2.5 -31.5 7.5 -44.5s12.167 -23.167 21.5 -30.5z" />
    <glyph glyph-name="fofathai" unicode="&#xe1d;" horiz-adv-x="470" 
d="M207 123c7.33301 7.33301 16.833 11.166 28.5 11.499s21.5 -3.5 29.5 -11.5l44 -44c9.33301 7.33301 16.333 17.666 21 30.999s7 28 7 44v444h81v-452c0 -48 -16 -86.333 -48 -115c-9.33301 -8 -20.833 -15.167 -34.5 -21.5s-28.5 -11.166 -44.5 -14.499l-56 57l-57 -57
c-16 4 -30.667 9 -44 15s-24.666 13 -33.999 21c-14.667 13.333 -26.334 29.833 -35.001 49.5s-13 41.5 -13 65.5v144c0 34.667 9.5 62.334 28.5 83.001s47.5 31 85.5 31h43v-72h-36c-15.333 0 -25.833 -3.66699 -31.5 -11s-8.5 -18 -8.5 -32v-135
c0 -16.667 2.5 -31.5 7.5 -44.5s12.167 -23.167 21.5 -30.5z" />
    <glyph glyph-name="phophanthai" unicode="&#xe1e;" horiz-adv-x="544" 
d="M300 404l96 -272l40 272h81l-69 -404h-70l-106 277l-106 -277h-71l-68 404h81l40 -272l96 272h56z" />
    <glyph glyph-name="fofanthai" unicode="&#xe1f;" horiz-adv-x="544" 
d="M300 404l96 -272l73 466h81l-102 -598h-70l-106 277l-106 -277h-71l-68 404h81l40 -272l96 272h56z" />
    <glyph glyph-name="phosamphaothai" unicode="&#xe20;" horiz-adv-x="464" 
d="M412 0l-81.0039 -0.000976562v242c0 34.667 -8.66699 59.167 -26 73.5s-42.333 21.5 -75 21.5c-17.333 0 -34.666 -2.83301 -51.999 -8.5s-33.666 -16.167 -48.999 -31.5l26 -38v-157c0 -23.333 -4.33301 -41.666 -13 -54.999s-19.167 -23.5 -31.5 -30.5
s-25.333 -11.5 -39 -13.5s-25.5 -3 -35.5 -3l-14 71c14 -0.666992 24.5 0.333008 31.5 3s12 6 15 10s4.66699 8.5 5 13.5s0.5 9.5 0.5 13.5v127l-38 54c23.333 38.667 50.833 67.667 82.5 87s69.167 29 112.5 29c60.667 0 105.834 -13.833 135.501 -41.5
s44.834 -67.167 45.501 -118.5v-248z" />
    <glyph glyph-name="momathai" unicode="&#xe21;" horiz-adv-x="430" 
d="M51 0l-0.00292969 404h82v-236c0 -14.667 2.33301 -28 7 -40s11 -22.5 19 -31.5s17 -16 27 -21s20 -7.5 30 -7.5c22.667 0 41.834 7 57.501 21s23.5 37 23.5 69v246h82v-258c0 -22 -3.33301 -42.167 -10 -60.5s-16.167 -34.333 -28.5 -48s-27.166 -24.167 -44.499 -31.5
s-36.666 -11 -57.999 -11c-20 0 -39.167 4 -57.5 12s-34.833 21 -49.5 39v-46h-80z" />
    <glyph glyph-name="yoyakthai" unicode="&#xe22;" horiz-adv-x="440" 
d="M209 181c-34 -1.33301 -58.5 -7.16699 -73.5 -17.5s-22.5 -23.833 -22.5 -40.5c0 -16 8.83301 -29.5 26.5 -40.5s41.167 -16.5 70.5 -16.5c38 0 63.5 9.5 76.5 28.5s19.5 43.5 19.5 73.5v236h82v-236c0 -26.667 -3.16699 -50.834 -9.5 -72.501s-16.5 -40 -30.5 -55
s-32.333 -26.5 -55 -34.5s-50.334 -12 -83.001 -12c-38 0 -68.667 5.16699 -92 15.5s-41.333 22.833 -54 37.5s-21 29.334 -25 44.001s-6 26.667 -6 36c0 16.667 3.33301 32.334 10 47.001s17 27.667 31 39c-13.333 9.33301 -23.166 20.5 -29.499 33.5
s-10.166 27.5 -11.499 43.5c0 31.333 9.66699 58.166 29 80.499s47.666 33.5 84.999 33.5h62v-72h-54c-16 0 -27 -3.5 -33 -10.5s-9 -17.833 -9 -32.5c0 -13.333 7.5 -23.5 22.5 -30.5s39.5 -10.833 73.5 -11.5v-66z" />
    <glyph glyph-name="roruathai" unicode="&#xe23;" horiz-adv-x="364" 
d="M336 121c0 -16.667 -3.32812 -32.5 -9.99512 -47.5s-16.5 -28.333 -29.5 -40s-29.5 -21 -49.5 -28s-43.333 -10.5 -70 -10.5c-37.333 0 -68.166 5.5 -92.499 16.5s-48.5 28.5 -72.5 52.5l50 54c17.333 -17.333 34.166 -30.333 50.499 -39s37.166 -13 62.499 -13
c30 0 50.833 5.33301 62.5 16s17.5 23.667 17.5 39s-6 26.833 -18 34.5s-25.667 13.167 -41 16.5l-32 7c-40.667 9.33301 -72.5 21.833 -95.5 37.5s-34.5 40.167 -34.5 73.5c0 32.667 11.833 60.5 35.5 83.5s59.167 34.5 106.5 34.5c28.667 0 54.667 -4.66699 78 -14
s46.666 -23.333 69.999 -42l-54 -51c-15.333 12 -30.333 21.167 -45 27.5s-31 9.5 -49 9.5c-22.667 0 -38.834 -4.66699 -48.501 -14s-14.5 -20.666 -14.5 -33.999c0 -10.667 5.66699 -18.834 17 -24.501s26.666 -11.167 45.999 -16.5l37 -9c16.667 -4 32.5 -9 47.5 -15
s28.167 -13.5 39.5 -22.5s20.166 -20.167 26.499 -33.5s9.5 -29.333 9.5 -48z" />
    <glyph glyph-name="ruthai" unicode="&#xe24;" horiz-adv-x="445" 
d="M57 238l-38.999 54c23.333 38.667 50.833 67.667 82.5 87s69.167 29 112.5 29c60.667 0 105.834 -13.833 135.501 -41.5s44.5 -67.167 44.5 -118.5v-399h-79v393c0 34.667 -8.83301 59.167 -26.5 73.5s-42.834 21.5 -75.501 21.5c-17.333 0 -34.833 -3.16699 -52.5 -9.5
s-34.167 -17.5 -49.5 -33.5l13.5 -19.5l12.5 -18.5v-153c0 -9.33301 1.66699 -16.833 5 -22.5s10 -8.5 20 -8.5h40v-72h-48c-34.667 0 -59.334 9 -74.001 27s-22 43 -22 75v136z" />
    <glyph glyph-name="lolingthai" unicode="&#xe25;" horiz-adv-x="405" 
d="M163 -5c-19.333 0 -37.6699 2.50195 -55.0029 7.50195s-32.5 12.667 -45.5 23s-23.333 23.166 -31 38.499s-11.5 33.666 -11.5 54.999c0 34 11.833 62.167 35.5 84.5s59.5 33.5 107.5 33.5h108v26c0 25.333 -7 44.333 -21 57s-37 19 -69 19
c-22 0 -40.167 -3.33301 -54.5 -10s-27.166 -15.667 -38.499 -27l-52 48c20.667 21.333 42.834 36.333 66.501 45s50.834 13 81.501 13c112.667 0 169 -46 169 -138v-270h-82v176h-97c-49.333 0 -74 -18.667 -74 -56c0 -18 6.16699 -32 18.5 -42s31.5 -15 57.5 -15v-68h-13z
" />
    <glyph glyph-name="luthai" unicode="&#xe26;" horiz-adv-x="463" 
d="M411 -150l-81.0039 -0.000976562v392c0 34.667 -8.66699 59.167 -26 73.5s-42.333 21.5 -75 21.5c-17.333 0 -34.666 -2.83301 -51.999 -8.5s-33.666 -16.167 -48.999 -31.5l26 -38v-157c0 -23.333 -4.33301 -41.666 -13 -54.999s-19.167 -23.5 -31.5 -30.5
s-25.333 -11.5 -39 -13.5s-25.5 -3 -35.5 -3l-14 71c14 -0.666992 24.5 0.333008 31.5 3s12 6 15 10s4.66699 8.5 5 13.5s0.5 9.5 0.5 13.5v127l-38 54c23.333 38.667 50.833 67.667 82.5 87s69.167 29 112.5 29c60.667 0 105.834 -13.833 135.501 -41.5
s44.834 -67.167 45.501 -118.5v-398z" />
    <glyph glyph-name="wowaenthai" unicode="&#xe27;" horiz-adv-x="352" 
d="M76 110c10.667 -13.333 23.499 -23.668 38.499 -31.001s29.167 -11 42.5 -11c28 0 48.667 9 62 27s20 40.333 20 67v82c0 25.333 -6.33301 47 -19 65s-33.667 27 -63 27c-16.667 0 -32.667 -5.16699 -48 -15.5s-27.666 -25.166 -36.999 -44.499l-70 35
c16 30.667 37.833 54.5 65.5 71.5s57.5 25.5 89.5 25.5c51.333 0 91 -15 119 -45s42 -69.667 42 -119v-83c0 -22 -3.16699 -43 -9.5 -63s-16 -37.5 -29 -52.5s-29.667 -27 -50 -36s-44.5 -13.5 -72.5 -13.5c-24 0 -48.5 5.83301 -73.5 17.5s-46.5 28.5 -64.5 50.5z" />
    <glyph glyph-name="sosalathai" unicode="&#xe28;" horiz-adv-x="457" 
d="M131 236c8.66699 2 19.666 2.99902 32.999 2.99902h67v-66h-59c-16 0 -26.833 -3.5 -32.5 -10.5s-8.5 -17.5 -8.5 -31.5v-131h-80v253c0 24 4.16699 45.833 12.5 65.5s19.833 36.167 34.5 49.5c16.667 16 37 26.667 61 32s46.667 8 68 8
c14.667 0 29.834 -1.16699 45.501 -3.5s30.834 -6.5 45.501 -12.5l78 72l54 -54l-73 -67c8 -12 14.333 -25.667 19 -41s7 -31.666 7 -48.999v-253h-80v246c0 32 -8.5 55.167 -25.5 69.5s-40.5 21.5 -70.5 21.5s-53.333 -7.16699 -70 -21.5s-25.334 -36.833 -26.001 -67.5
v-12z" />
    <glyph glyph-name="sorusithai" unicode="&#xe29;" horiz-adv-x="454" 
d="M391 183l0.000976562 -33.0029c0 -23.333 -4.33301 -44.666 -13 -63.999s-20.5 -35.666 -35.5 -48.999s-33 -23.666 -54 -30.999s-43.5 -11 -67.5 -11s-46.167 3.5 -66.5 10.5s-38 17 -53 30s-27 29.167 -36 48.5s-13.833 41.333 -14.5 66v254h81v-246
c0 -30 7.66699 -52.833 23 -68.5s37.333 -23.5 66 -23.5s50.667 7.83301 66 23.5s23 38.5 23 68.5v25h-49c-9.33301 0 -18.666 1.5 -27.999 4.5s-17.833 8.16699 -25.5 15.5s-13.834 17.5 -18.501 30.5s-7 29.5 -7 49.5h74c0 -11.333 1.16699 -19.5 3.5 -24.5
s5.16602 -7.5 8.49902 -7.5h42v153h81v-153h50v-68h-50z" />
    <glyph glyph-name="sosuathai" unicode="&#xe2a;" horiz-adv-x="405" 
d="M163 -5c-19.333 0 -37.6699 2.50293 -55.0029 7.50293s-32.5 12.667 -45.5 23s-23.333 23.166 -31 38.499s-11.5 33.666 -11.5 54.999c0 34 11.833 62.167 35.5 84.5s59.5 33.5 107.5 33.5h108v26c0 25.333 -7 44.333 -21 57s-37 19 -69 19
c-22 0 -40.167 -3.33301 -54.5 -10s-27.166 -15.667 -38.499 -27l-52 48c20.667 21.333 42.834 36.333 66.501 45s50.834 13 81.501 13c32.667 0 61 -4 85 -12l70 68l56 -53l-64 -61c14.667 -20.667 22 -47.334 22 -80.001v-270h-82v176h-97c-49.333 0 -74 -18.667 -74 -56
c0 -18 6.16699 -32 18.5 -42s31.5 -15 57.5 -15v-68h-13z" />
    <glyph glyph-name="hohipthai" unicode="&#xe2b;" horiz-adv-x="442" 
d="M329 303c21.333 -12.667 37 -30.5 47 -53.5s15 -47.167 15 -72.5v-177h-80v170c0 44 -15 72 -45 84l-134 -106v-148h-81v404h81v-163l224 175l46 -55z" />
    <glyph glyph-name="lochulathai" unicode="&#xe2c;" horiz-adv-x="549" 
d="M421 309c-0.666992 8.66699 -5.16602 15.167 -13.499 19.5s-21.833 6.83301 -40.5 7.5v68h52c11.333 0 20.166 2.83301 26.499 8.5s10.833 12.5 13.5 20.5l14 43h82l-20 -64c-4.66699 -14 -11 -26 -19 -36s-16.667 -18.333 -26 -25c10 -16 13 -33.333 9 -52l-51 -299h-70
l-106 277l-106 -277h-71l-68 404h81l40 -272l96 272h56l96 -272z" />
    <glyph glyph-name="oangthai" unicode="&#xe2d;" horiz-adv-x="418" 
d="M195 176l-80.002 0.00390625c0 -9.33301 0.333008 -17.833 1 -25.5s2.33398 -14.5 5.00098 -20.5c5.33301 -16 15.333 -30.5 30 -43.5s34.334 -19.5 59.001 -19.5c19.333 0 35.333 3.66699 48 11s22.5 17.166 29.5 29.499s11.833 26.666 14.5 42.999s4 33.5 4 51.5
c0 16 -1.5 32 -4.5 48s-8.5 30.5 -16.5 43.5s-19 23.5 -33 31.5s-32 12 -54 12c-19.333 0 -37.333 -3.66699 -54 -11s-34.334 -20 -53.001 -38l-59 44c25.333 25.333 50.5 44.5 75.5 57.5s55.833 19.5 92.5 19.5c60.667 0 106.834 -17.333 138.501 -52
s47.5 -86.334 47.5 -155.001c0 -64.667 -15.5 -115.334 -46.5 -152.001s-74.167 -55 -129.5 -55c-40.667 0 -75 10.5 -103 31.5s-48.333 49.5 -61 85.5c-2 6.66699 -3.66699 15.167 -5 25.5s-2.33301 21.5 -3 33.5s-1.16699 24.167 -1.5 36.5s-0.5 23.833 -0.5 34.5h159v-66
z" />
    <glyph glyph-name="honokhukthai" unicode="&#xe2e;" horiz-adv-x="418" 
d="M195 176l-80 0.00292969c0 -9.33301 0.333008 -17.833 1 -25.5s2.33398 -14.5 5.00098 -20.5c5.33301 -16 15.333 -30.5 30 -43.5s34.334 -19.5 59.001 -19.5c19.333 0 35.333 3.66699 48 11s22.5 17.166 29.5 29.499s11.833 26.666 14.5 42.999s4 33.5 4 51.5
c0 16 -1.5 32 -4.5 48s-8.5 30.5 -16.5 43.5s-19 23.5 -33 31.5s-32 12 -54 12c-19.333 0 -37.333 -3.66699 -54 -11s-34.334 -20 -53.001 -38l-59 44c25.333 25.333 50.5 44.5 75.5 57.5s55.833 19.5 92.5 19.5c31.333 0 59.666 -5.33301 84.999 -16l80 77l56 -53l-75 -70
c26.667 -36 40 -84.333 40 -145c0 -64.667 -15.5 -115.334 -46.5 -152.001s-74.167 -55 -129.5 -55c-40.667 0 -75 10.5 -103 31.5s-48.333 49.5 -61 85.5c-2 6.66699 -3.66699 15.167 -5 25.5s-2.33301 21.5 -3 33.5s-1.16699 24.167 -1.5 36.5s-0.5 23.833 -0.5 34.5h159
v-66z" />
    <glyph glyph-name="paiyannoithai" unicode="&#xe2f;" horiz-adv-x="426" 
d="M292 177c-12 -9.33301 -26.167 -16.167 -42.5 -20.5s-31.833 -6.5 -46.5 -6.5c-51.333 0 -92.333 11 -123 33s-46 56 -46 102c0 34 9.5 62.333 28.5 85s47.5 34 85.5 34h43v-72h-36c-16 0 -26.833 -4.16699 -32.5 -12.5s-8.5 -19.833 -8.5 -34.5
c0 -23.333 7.66699 -39.833 23 -49.5s37.333 -14.5 66 -14.5c59.333 0 89 29 89 87v96h82v-404h-82v177z" />
    <glyph glyph-name="saraathai" unicode="&#xe30;" horiz-adv-x="269" 
d="M108 159c0.666992 -10.667 1.99902 -19.165 3.99902 -25.498s4.66699 -9.5 8 -9.5h105v-70h-113c-8.66699 0 -17.667 1.66699 -27 5s-17.666 9.16602 -24.999 17.499s-13.5 19.166 -18.5 32.499s-7.83301 30 -8.5 50h75zM107.999 354.002
c0.666992 -10.667 1.99902 -19.165 3.99902 -25.498s4.66699 -9.5 8 -9.5h105v-70h-113c-8.66699 0 -17.667 1.66699 -27 5s-17.666 9.16602 -24.999 17.499s-13.5 19.166 -18.5 32.499s-7.83301 30 -8.5 50h75z" />
    <glyph glyph-name="maihanakatthai" unicode="&#xe31;" 
d="M-177 579c0 -24.667 4.33105 -36.999 12.998 -36.999h192v-63h-201c-9.33301 0 -18.666 1.16699 -27.999 3.5s-17.666 7.16602 -24.999 14.499s-13.5 17.5 -18.5 30.5s-7.5 30.167 -7.5 51.5h75z" />
    <glyph glyph-name="saraaathai" unicode="&#xe32;" horiz-adv-x="330" 
d="M4 333c15.333 24 34.5 42.5 57.5 55.5s49.167 19.5 78.5 19.5c46 0 80.5 -11.667 103.5 -35s34.5 -57 34.5 -101v-272h-80v270c0 20.667 -4.33301 37 -13 49s-23.667 18 -45 18c-29.333 0 -53.333 -13.333 -72 -40z" />
    <glyph glyph-name="saraamthai" unicode="&#xe33;" horiz-adv-x="330" 
d="M-184 548c0 23.333 8.16699 43.166 24.5 59.499s36.166 24.5 59.499 24.5c22.667 0 42.167 -8.16699 58.5 -24.5s24.5 -36.166 24.5 -59.499c0 -22.667 -8.16699 -42.167 -24.5 -58.5s-35.833 -24.5 -58.5 -24.5c-23.333 0 -43.166 8.16699 -59.499 24.5
s-24.5 35.833 -24.5 58.5zM4 333c15.333 24 34.5 42.5 57.5 55.5s49.167 19.5 78.5 19.5c46 0 80.5 -11.667 103.5 -35s34.5 -57 34.5 -101v-272h-80v270c0 20.667 -4.33301 37 -13 49s-23.667 18 -45 18c-29.333 0 -53.333 -13.333 -72 -40zM-127 548
c0 -7.33301 2.5 -13.5 7.5 -18.5s11.5 -7.5 19.5 -7.5s14.5 2.5 19.5 7.5s7.5 11.167 7.5 18.5c0 8 -2.5 14.5 -7.5 19.5s-11.5 7.5 -19.5 7.5s-14.5 -2.5 -19.5 -7.5s-7.5 -11.5 -7.5 -19.5z" />
    <glyph glyph-name="saraithai" unicode="&#xe34;" 
d="M-382 542h330v-63h-330v63z" />
    <glyph glyph-name="saraiithai" unicode="&#xe35;" 
d="M-382 542h252v61h78v-124h-330v63z" />
    <glyph glyph-name="sarauethai" unicode="&#xe36;" 
d="M-382 479l0.000976562 62.999h181v9c0 22 7.66699 40.667 23 56s33.666 23 54.999 23c22 0 40.667 -7.16699 56 -21.5s23 -32.5 23 -54.5c0 -21.333 -7.66699 -39.166 -23 -53.499s-34 -21.5 -56 -21.5h-259zM-145.999 551.999c0 -6.66699 2.33301 -12.167 7 -16.5
s10 -6.5 16 -6.5c7.33301 0 13.333 2.16699 18 6.5s7 9.83301 7 16.5c0 7.33301 -2.33301 13.166 -7 17.499s-10.667 6.5 -18 6.5c-6 0 -11.333 -2.16699 -16 -6.5s-7 -10.166 -7 -17.499z" />
    <glyph glyph-name="saraueethai" unicode="&#xe37;" 
d="M-382 542h155v61h69v-61h37v61h69v-124h-330v63z" />
    <glyph glyph-name="sarauthai" unicode="&#xe38;" 
d="M-129 -147c0 8 -0.833008 12.998 -2.5 14.998s-4.83398 3 -9.50098 3h-30v71h35c15.333 0 28.333 -1.16699 39 -3.5s19.334 -6.66602 26.001 -12.999s11.5 -15.166 14.5 -26.499s4.5 -26.333 4.5 -45v-72h-77v71z" />
    <glyph glyph-name="sarauuthai" unicode="&#xe39;" 
d="M-232 -128c0 4 -1.66797 6 -5.00098 6h-27v64h38c24.667 0 41.334 -5 50.001 -15s13 -26.667 13 -50v-5c0 -4.66699 1.5 -9.33398 4.5 -14.001s8.5 -7 16.5 -7s13.333 2.33301 16 7s4 9.33398 4 14.001v70h70v-70c0 -25.333 -8.5 -45.666 -25.5 -60.999
s-38.5 -23 -64.5 -23c-28 0 -50 7.66699 -66 23s-24 35.666 -24 60.999z" />
    <glyph glyph-name="phinthuthai" unicode="&#xe3a;" 
d="M-144 -111c0 14 4.83301 25.833 14.5 35.5s21.5 14.5 35.5 14.5s25.833 -4.83301 35.5 -14.5s14.5 -21.5 14.5 -35.5s-4.83301 -25.833 -14.5 -35.5s-21.5 -14.5 -35.5 -14.5s-25.833 4.83301 -35.5 14.5s-14.5 21.5 -14.5 35.5z" />
    <glyph glyph-name="PUCR2005" unicode="&#xe3e;" 
 />
    <glyph glyph-name="bahtthai" unicode="&#xe3f;" horiz-adv-x="479" 
d="M430 143c0 -47.333 -14.333 -83 -43 -107s-66 -36 -112 -36v-58h-63v58h-142v503h142v56h63v-56c46 -1.33301 82 -14.333 108 -39s39 -57.667 39 -99c0 -26 -6.5 -48.167 -19.5 -66.5s-27.5 -31.833 -43.5 -40.5c18.667 -8 35.167 -21.5 49.5 -40.5
s21.5 -43.833 21.5 -74.5zM151 73h61v146h-61v-146zM151 292h61v138h-61v-138zM348 147c0 19.333 -6.33301 35.832 -19 49.499s-30.667 21.167 -54 22.5v-146c23.333 1.33301 41.333 8.83301 54 22.5s19 30.834 19 51.501zM341 360.999c0 20 -6 35.832 -18 47.499
s-28 18.5 -48 20.5v-137c20 2.66699 36 9.83398 48 21.501s18 27.5 18 47.5z" />
    <glyph glyph-name="saraethai" unicode="&#xe40;" horiz-adv-x="198" 
d="M52 404h81.001v-301c0 -9.33301 1.33301 -16.833 4 -22.5s9 -8.5 19 -8.5h40v-72h-48c-34.667 0 -59.334 9 -74.001 27s-22 43 -22 75v302z" />
    <glyph glyph-name="saraaethai" unicode="&#xe41;" horiz-adv-x="386" 
d="M52 404h81.001v-301c0 -9.33301 1.33301 -16.833 4 -22.5s9 -8.5 19 -8.5h40v-72h-48c-34.667 0 -59.334 9 -74.001 27s-22 43 -22 75v302zM240.001 404h81.001v-301c0 -9.33301 1.33301 -16.833 4 -22.5s9 -8.5 19 -8.5h40v-72h-48c-34.667 0 -59.334 9 -74.001 27
s-22 43 -22 75v302z" />
    <glyph glyph-name="saraothai" unicode="&#xe42;" horiz-adv-x="222" 
d="M61 469c0 18.667 -6.16504 34.499 -18.498 47.499s-31.5 19.5 -57.5 19.5l14 62h237v-67h-113c7.33301 -9.33301 12.166 -20 14.499 -32s3.5 -22.333 3.5 -31v-362c0 -9.33301 1.16699 -17.333 3.5 -24s9.16602 -10 20.499 -10h39v-72h-47c-36 0 -61 9.83301 -75 29.5
s-21 44.834 -21 75.501v364z" />
    <glyph glyph-name="saraaimaimuanthai" unicode="&#xe43;" horiz-adv-x="223" 
d="M61 360c0 11.333 1.50195 22.5 4.50195 33.5s11.167 23.833 24.5 38.5l41 44c8.66699 9.33301 13.667 16.333 15 21s2 8 2 10c0 10.667 -4.16699 17.834 -12.5 21.501s-17.5 5.5 -27.5 5.5c-8 0 -17.167 -3.33301 -27.5 -10s-18.166 -20.667 -23.499 -42l-72 13
c2.66699 18 8 33.833 16 47.5s17.833 25.167 29.5 34.5s24.167 16.333 37.5 21s26.666 7 39.999 7c39.333 0 68.666 -8.83301 87.999 -26.5s29 -41.5 29 -71.5c0 -10 -1.83301 -19.333 -5.5 -28s-8.33398 -17 -14.001 -25s-12 -15.667 -19 -23l-20.5 -22
c-6 -6 -11.333 -12.5 -16 -19.5s-7.33398 -16.5 -8.00098 -28.5v-255c0 -9.33301 1 -17.333 3 -24s8.66699 -10 20 -10h40v-72h-48c-35.333 0 -60.166 9.66699 -74.499 29s-21.5 44.666 -21.5 75.999v255z" />
    <glyph glyph-name="saraaimaimalaithai" unicode="&#xe44;" horiz-adv-x="235" 
d="M154 105c0 -9.33301 1.16895 -17.167 3.50195 -23.5s9.16602 -9.5 20.499 -9.5h39v-72h-47c-36 0 -61 10 -75 30s-21 45.333 -21 76v362c0 8.66699 1.16699 19 3.5 31s7.16602 22.667 14.499 32h-113v67h237l14 -62c-26 0 -45.167 -6.5 -57.5 -19.5
s-18.5 -28.833 -18.5 -47.5v-364z" />
    <glyph glyph-name="lakkhangyaothai" unicode="&#xe45;" horiz-adv-x="330" 
d="M4 333c15.333 24 34.5 42.5 57.5 55.5s49.167 19.5 78.5 19.5c46 0 80.5 -11.667 103.5 -35s34.5 -57 34.5 -101v-423h-80v421c0 20.667 -4.33301 37 -13 49s-23.667 18 -45 18c-29.333 0 -53.333 -13.333 -72 -40z" />
    <glyph glyph-name="maiyamokthai" unicode="&#xe46;" horiz-adv-x="437" 
d="M136 330c-2.66699 -2 -5.00098 -5.49902 -7.00098 -10.499s-3 -14.167 -3 -27.5c0 -9.33301 0.833008 -18.5 2.5 -27.5s8.16699 -13.5 19.5 -13.5h13v-66h-20c-14 0 -26.667 1.66699 -38 5s-21.166 9.16602 -29.499 17.499s-14.833 19.333 -19.5 33s-7 30.834 -7 51.501
c0 32.667 7.16699 58 21.5 76s40.166 31.667 77.499 41l73 -58l35.5 29l35.5 29c26 -7.33301 48.333 -18.833 67 -34.5s28 -37.5 28 -65.5v-460h-81v459c0 3.33301 -0.666992 6.66602 -2 9.99902s-2.66602 6.33301 -3.99902 9l-56 -44
c-6.66699 -5.33301 -14.5 -7.83301 -23.5 -7.5s-16.5 2.83301 -22.5 7.5z" />
    <glyph glyph-name="maitaikhuthai" unicode="&#xe47;" 
d="M-280 620c-10.667 0 -18.6641 -3.49902 -23.9971 -10.499s-8.33301 -15.167 -9 -24.5c0 -13.333 4.33301 -25 13 -35l55 32c12.667 7.33301 25.667 7.33301 39 0l57 -32c3.33301 3.33301 5.66602 8.66602 6.99902 15.999s0.666016 15 -2.00098 23h66
c3.33301 -14.667 3.5 -28 0.5 -40s-8.33301 -22.833 -16 -32.5s-16.834 -17.667 -27.501 -24s-22.334 -11.166 -35.001 -14.499l-58 36c-8 4.66699 -15.333 4.66699 -22 0l-57 -37c-24.667 8 -45.667 20.667 -63 38s-26 40.333 -26 69c0 11.333 2.16699 22.666 6.5 33.999
s10.833 21.833 19.5 31.5s18.834 17.5 30.501 23.5s25.167 9.33301 40.5 10h232v-63h-227z" />
    <glyph glyph-name="maiekthai" unicode="&#xe48;" 
d="M-129 802h77v-148h-77v148z" />
    <glyph glyph-name="maithothai" unicode="&#xe49;" 
d="M34 718l-0.000976562 -64h-230v53l31 8c9.33301 2 14 8 14 18s-12 14.667 -36 14v63c32 0 57.333 -5.33301 76 -16s28 -28.667 28 -54c0 -4 -0.166992 -7.66699 -0.5 -11s-1.16602 -7 -2.49902 -11h120z" />
    <glyph glyph-name="maitrithai" unicode="&#xe4a;" 
d="M27 713v-59.002h-144v74c0 12.667 -2 21 -6 25l-22 -27c-5.33301 -6 -12.833 -9.16699 -22.5 -9.5s-18.167 3.16699 -25.5 10.5l-26 25c-4 -3.33301 -6.33301 -6.66602 -7 -9.99902s-1 -7.66602 -1 -12.999c0 -6.66699 3.66699 -12.167 11 -16.5s16.666 -6.5 27.999 -6.5
v-55h-20c-23.333 0 -42.666 7.5 -57.999 22.5s-23 33.167 -23 54.5c0 22.667 5.16699 40 15.5 52s20.5 20.667 30.5 26c7.33301 4.66699 15.833 7 25.5 7s19.167 -4.33301 28.5 -13l19 -18l18 18c9.33301 9.33301 18.5 13.666 27.5 12.999s16.167 -2.66699 21.5 -6
c11.333 -5.33301 22.333 -14.666 33 -27.999s16 -30.333 16 -51v-15h81z" />
    <glyph glyph-name="maichattawathai" unicode="&#xe4b;" 
d="M-179 704v67h57v52h70v-52h57v-67h-57v-50h-70v50h-57z" />
    <glyph glyph-name="thanthakhatthai" unicode="&#xe4c;" 
d="M-126 600c0 22 2.33105 39.667 6.99805 53s10.834 23.833 18.501 31.5s16 12.667 25 15s18.167 3.5 27.5 3.5h85v-68h-80c-5.33301 0 -8.66602 -3 -9.99902 -9s-2 -14.667 -2 -26h-71z" />
    <glyph glyph-name="nikhahitthai" unicode="&#xe4d;" 
d="M-165 548c0 23.333 8.16699 43.166 24.5 59.499s36.166 24.5 59.499 24.5c22.667 0 42.167 -8.16699 58.5 -24.5s24.5 -36.166 24.5 -59.499c0 -22.667 -8.16699 -42.167 -24.5 -58.5s-35.833 -24.5 -58.5 -24.5c-23.333 0 -43.166 8.16699 -59.499 24.5
s-24.5 35.833 -24.5 58.5zM-108 548c0 -7.33301 2.5 -13.5 7.5 -18.5s11.5 -7.5 19.5 -7.5s14.5 2.5 19.5 7.5s7.5 11.167 7.5 18.5c0 8 -2.5 14.5 -7.5 19.5s-11.5 7.5 -19.5 7.5s-14.5 -2.5 -19.5 -7.5s-7.5 -11.5 -7.5 -19.5z" />
    <glyph glyph-name="yamakkanthai" unicode="&#xe4e;" 
d="M-47 519c-4 0 -6.33301 -3 -7 -9s-1 -15 -1 -27h-70c0 34 4 57.667 12 71s18.667 21.333 32 24c2.66699 9.33301 6.66699 16.5 12 21.5s11.333 8.83301 18 11.5s13.667 4.16699 21 4.5s14 0.5 20 0.5h42v-61h-40c-4 0 -6.33301 -2.5 -7 -7.5s-1 -14.5 -1 -28.5h-31z" />
    <glyph glyph-name="fongmanthai" unicode="&#xe4f;" horiz-adv-x="515" 
d="M99 200c0 -21.333 4.16699 -41.333 12.5 -60s19.5 -35 33.5 -49s30.333 -25.167 49 -33.5s38.667 -12.5 60 -12.5c22 0 42.5 4.16699 61.5 12.5s35.5 19.5 49.5 33.5s25.167 30.333 33.5 49s12.5 38.667 12.5 60c0 22 -4.16699 42.5 -12.5 61.5s-19.5 35.5 -33.5 49.5
s-30.5 25.167 -49.5 33.5s-39.5 12.5 -61.5 12.5c-21.333 0 -41.333 -4.16699 -60 -12.5s-35 -19.5 -49 -33.5s-25.167 -30.5 -33.5 -49.5s-12.5 -39.5 -12.5 -61.5zM139 200c0 16 3 31 9 45s14.333 26.333 25 37s22.834 19 36.501 25s28.5 9 44.5 9s31 -3 45 -9
s26.333 -14.333 37 -25s19 -23 25 -37s9 -29 9 -45s-3 -30.833 -9 -44.5s-14.333 -25.834 -25 -36.501s-23 -19 -37 -25s-29 -9 -45 -9s-30.833 3 -44.5 9s-25.834 14.333 -36.501 25s-19 22.834 -25 36.501s-9 28.5 -9 44.5zM35 200c0 30.667 5.66699 59.5 17 86.5
s27 50.5 47 70.5s43.333 35.667 70 47s55 17 85 17c30.667 0 59.5 -5.66699 86.5 -17s50.5 -27 70.5 -47s35.667 -43.5 47 -70.5s17 -55.833 17 -86.5c0 -30 -5.66699 -58.333 -17 -85s-27 -50 -47 -70s-43.5 -35.667 -70.5 -47s-55.833 -17 -86.5 -17
c-30 0 -58.333 5.66699 -85 17s-50 27 -70 47s-35.667 43.333 -47 70s-17 55 -17 85zM201 200c0 -14.667 5.16699 -27.167 15.5 -37.5s22.833 -15.5 37.5 -15.5c15.333 0 28.166 5.16699 38.499 15.5s15.5 22.833 15.5 37.5c0 15.333 -5.16699 28.166 -15.5 38.499
s-23.166 15.5 -38.499 15.5c-14.667 0 -27.167 -5.16699 -37.5 -15.5s-15.5 -23.166 -15.5 -38.499z" />
    <glyph glyph-name="zerothai" unicode="&#xe50;" horiz-adv-x="476" 
d="M238 62c18 0 34.498 3.16699 49.498 9.5s27.833 14.666 38.5 24.999s18.834 22.5 24.501 36.5s8.5 29 8.5 45c0 31.333 -11 57.833 -33 79.5s-51.333 32.834 -88 33.501c-36.667 -0.666992 -66 -11.834 -88 -33.501s-33 -48.167 -33 -79.5c0 -16 2.83301 -31 8.5 -45
s13.834 -26.167 24.501 -36.5s23.5 -18.666 38.5 -24.999s31.5 -9.5 49.5 -9.5zM237.998 362c32 0 60.667 -4.83301 86 -14.5s46.5 -22.834 63.5 -39.501s30 -36.167 39 -58.5s13.5 -46.166 13.5 -71.499c0 -26 -4.5 -50.167 -13.5 -72.5s-22 -41.833 -39 -58.5
s-38.167 -29.834 -63.5 -39.501s-54 -14.5 -86 -14.5s-60.667 4.83301 -86 14.5s-46.5 22.834 -63.5 39.501s-30 36.167 -39 58.5s-13.5 46.5 -13.5 72.5c0 25.333 4.5 49.166 13.5 71.499s22 41.833 39 58.5s38.167 29.834 63.5 39.501s54 14.5 86 14.5z" />
    <glyph glyph-name="onethai" unicode="&#xe51;" horiz-adv-x="476" 
d="M32 173c0 28 5.16895 53.3311 15.502 75.998s24.666 42.167 42.999 58.5s40.166 29 65.499 38s52.666 13.5 81.999 13.5c30.667 0 58.667 -4.83301 84 -14.5s46.833 -23.334 64.5 -41.001s31.334 -39 41.001 -64s14.5 -52.5 14.5 -82.5c0 -54 -13.5 -98.5 -40.5 -133.5
s-66.5 -66.5 -118.5 -94.5l-42 58c40 20.667 70.167 44.334 90.5 71.001s30.5 60 30.5 100c0 20 -3.16699 38 -9.5 54s-15.166 29.833 -26.499 41.5s-24.5 20.667 -39.5 27s-31.167 9.5 -48.5 9.5c-16 0 -31.5 -3 -46.5 -9s-28.333 -14 -40 -24
s-20.834 -22.167 -27.501 -36.5s-10 -30.166 -10 -47.499c0 -63.333 35.667 -95.666 107 -96.999l2 -71c-34.667 0 -64 4.33301 -88 13s-43.667 20.5 -59 35.5s-26.5 32.667 -33.5 53s-10.5 42.5 -10.5 66.5z" />
    <glyph glyph-name="twothai" unicode="&#xe52;" horiz-adv-x="515" 
d="M119 462l0.00390625 -303.003c0 -16.667 4.5 -31 13.5 -43s20.667 -21.667 35 -29s30.5 -12.833 48.5 -16.5s35.667 -5.5 53 -5.5s34.166 1.83301 50.499 5.5s30.666 9.16699 42.999 16.5s22.166 17 29.499 29s11 26.333 11 43v49c0 17.333 -2.33301 32.5 -7 45.5
s-12.667 22.167 -24 27.5l-44 -37c-8 -7.33301 -17.667 -10.666 -29 -9.99902s-20.666 4.66699 -27.999 12l-32 34c-12.667 -9.33301 -22 -26.666 -28 -51.999l-71 23c7.33301 33.333 21.5 59.166 42.5 77.499s46.167 31.5 75.5 39.5l44 -49l52 49
c44 -11.333 76.333 -30.833 97 -58.5s31 -59.167 31 -94.5v-56c0 -28 -5.33301 -52.333 -16 -73s-25.334 -37.667 -44.001 -51s-41.167 -23.166 -67.5 -29.499s-54.833 -9.5 -85.5 -9.5s-59.834 3 -87.501 9s-52 15.5 -73 28.5s-37.833 29.833 -50.5 50.5
s-19 45.334 -19 74.001v304h80z" />
    <glyph glyph-name="threethai" unicode="&#xe53;" horiz-adv-x="507" 
d="M279 225c-17.333 -13.333 -34.668 -13.6631 -52.001 -0.996094l-67 52c-12.667 -10 -23.667 -23.5 -33 -40.5s-14 -36.167 -14 -57.5c0 -31.333 8.33301 -58 25 -80s42.334 -33.333 77.001 -34v-69c-34 0.666992 -62.5 6.66699 -85.5 18s-41.667 25.666 -56 42.999
s-24.666 36.666 -30.999 57.999s-9.5 42.666 -9.5 63.999c0 43.333 12.5 81.333 37.5 114s55.833 57.334 92.5 74.001l89 -68l91 68c18 -8 35 -18.333 51 -31s30 -27 42 -43s21.333 -33.5 28 -52.5s10 -39.167 10 -60.5c0 -40 -8 -75.833 -24 -107.5
s-34 -58.834 -54 -81.501l-69 35l23 30.5c8 11 15.167 23 21.5 36s11.666 26.667 15.999 41s6.5 29.5 6.5 45.5c0 21.333 -4.33301 40.666 -13 57.999s-19.667 31 -33 41z" />
    <glyph glyph-name="fourthai" unicode="&#xe54;" horiz-adv-x="530" 
d="M262 69c-12 19.333 -18 40.001 -18 62.001c0 40 11.833 69.167 35.5 87.5s57.5 27.5 101.5 27.5h22v-69h-18c-18.667 0 -33.667 -3 -45 -9s-17 -18 -17 -36c0 -21.333 6.83301 -37 20.5 -47s33.167 -15.333 58.5 -16h58v-69h-238c-31.333 0 -58.666 4.5 -81.999 13.5
s-42.833 21.5 -58.5 37.5s-27.5 34.833 -35.5 56.5s-12 45.5 -12 71.5s4 50 12 72s19.833 41 35.5 57s35.167 28.5 58.5 37.5s50.666 13.5 81.999 13.5h172l79 76l53 -52l-96 -93h-208c-34 -0.666992 -60.5 -11.334 -79.5 -32.001s-28.5 -47 -28.5 -79s9.5 -58.333 28.5 -79
s45.5 -31 79.5 -31h40z" />
    <glyph glyph-name="fivethai" unicode="&#xe55;" horiz-adv-x="530" 
d="M282 371c0 -7.33301 2.5 -13.5 7.5 -18.5s11.5 -7.5 19.5 -7.5s14.5 2.5 19.5 7.5s7.5 11.167 7.5 18.5c0 8 -2.5 14.5 -7.5 19.5s-11.5 7.5 -19.5 7.5s-14.5 -2.5 -19.5 -7.5s-7.5 -11.5 -7.5 -19.5zM225 371c0 23.333 8.16797 43.167 24.501 59.5
s36.166 24.5 59.499 24.5c22.667 0 42.167 -8.16699 58.5 -24.5s24.5 -36.166 24.5 -59.499c0 -2 -0.166992 -4 -0.5 -6s-0.5 -4 -0.5 -6h3l79 76l53 -52l-96 -93h-208c-34 -0.666992 -60.5 -11.334 -79.5 -32.001s-28.5 -47 -28.5 -79s9.5 -58.333 28.5 -79
s45.5 -31 79.5 -31h40c-12 19.333 -18 40 -18 62c0 40 11.833 69.167 35.5 87.5s57.5 27.5 101.5 27.5h22v-69h-18c-18.667 0 -33.667 -3 -45 -9s-17 -18 -17 -36c0 -21.333 6.83301 -37 20.5 -47s33.167 -15.333 58.5 -16h58v-69h-238c-31.333 0 -58.666 4.5 -81.999 13.5
s-42.833 21.5 -58.5 37.5s-27.5 34.833 -35.5 56.5s-12 45.5 -12 71.5s4 50 12 72s19.833 41 35.5 57s35.167 28.5 58.5 37.5s50.666 13.5 81.999 13.5h4c-0.666992 2.66699 -1 6.66699 -1 12z" />
    <glyph glyph-name="sixthai" unicode="&#xe56;" horiz-adv-x="515" 
d="M84 125c-2 17.333 -0.499023 32.3359 4.50098 45.0029s11.667 23.5 20 32.5s17.333 16.333 27 22s17.834 10.167 24.501 13.5l39 -62c-7.33301 -4.66699 -15.166 -10.334 -23.499 -17.001s-11.833 -16.334 -10.5 -29.001c0.666992 -10 4.5 -19 11.5 -27
s15.833 -14.5 26.5 -19.5s22.167 -8.83301 34.5 -11.5s24.5 -4 36.5 -4c41.333 0 72.666 10.333 93.999 31s32 47 32 79s-10.833 59 -32.5 81s-52.834 33 -93.501 33c-27.333 0 -51.333 -2.5 -72 -7.5s-40.667 -15.167 -60 -30.5l-135 129l54 50l97 -93
c14 6.66699 31.167 12.167 51.5 16.5s41.833 6.5 64.5 6.5c34.667 0 65 -4.83301 91 -14.5s47.5 -22.834 64.5 -39.501s29.833 -36.334 38.5 -59.001s13 -46.667 13 -72c0 -26 -4.33301 -50.167 -13 -72.5s-21.667 -41.5 -39 -57.5s-38.833 -28.667 -64.5 -38
s-55.834 -14 -90.501 -14c-56.667 0 -101.5 12.333 -134.5 37s-51.5 55.334 -55.5 92.001z" />
    <glyph glyph-name="seventhai" unicode="&#xe57;" horiz-adv-x="526" 
d="M487 171c0 -21.333 -3.16504 -41.3311 -9.49805 -59.998s-14 -35.667 -23 -51s-18.667 -28.666 -29 -39.999s-19.833 -20.333 -28.5 -27l-64 36c7.33301 7.33301 15.166 15.833 23.499 25.5s16.166 20.5 23.499 32.5s13.5 24.833 18.5 38.5s7.5 28.5 7.5 44.5
c0 22.667 -6.33301 43.167 -19 61.5s-26.334 33.166 -41.001 44.499l-62 -51c-18.667 -14.667 -36.667 -14.667 -54 0l-62 51c-13.333 -11.333 -25.666 -25.333 -36.999 -42s-17 -38 -17 -64c0 -34 9.83301 -60 29.5 -78s44.167 -27 73.5 -27v-70
c-32.667 0.666992 -60.667 6.33398 -84 17.001s-42.333 24.167 -57 40.5s-25.5 34.666 -32.5 54.999s-10.5 41.166 -10.5 62.499c0 24.667 4 47.167 12 67.5s18.5 38.666 31.5 54.999s27.833 30.833 44.5 43.5s34 23.667 52 33l84 -70l82 68c10 -4 21.167 -9.66699 33.5 -17
s23.833 -15.333 34.5 -24v136h80v-291z" />
    <glyph glyph-name="eightthai" unicode="&#xe58;" horiz-adv-x="513" 
d="M457 131c0 -30 -9.16699 -55.999 -27.5 -77.999s-46.833 -41.667 -85.5 -59l-87 69l-88 -69c-18 8 -35.333 18.167 -52 30.5s-31.167 26.5 -43.5 42.5s-22.166 33.667 -29.499 53s-11 39.666 -11 60.999c0 22 3.5 43.667 10.5 65s17.667 40.333 32 57
s32.833 30.167 55.5 40.5s49.667 15.5 81 15.5h170l75 78l57 -51l-95 -96h-207c-30.667 -0.666992 -54.667 -11 -72 -31s-26 -46 -26 -78c0 -19.333 5.16699 -37.5 15.5 -54.5s21.833 -31.167 34.5 -42.5l66 52c8 6.66699 16.667 10.167 26 10.5
s18.666 -3.16699 27.999 -10.5l68 -55c18.667 10 28 27 28 51c0 9.33301 -3.33301 17.166 -10 23.499s-14.667 12.166 -24 17.499l20 68c28 -9.33301 50.167 -23.166 66.5 -41.499s24.5 -41.166 24.5 -68.499z" />
    <glyph glyph-name="ninethai" unicode="&#xe59;" horiz-adv-x="569" 
d="M248 -7c-34 0 -64.335 4.83203 -91.002 14.499s-49 22.834 -67 39.501s-31.833 36.167 -41.5 58.5s-14.5 46.5 -14.5 72.5c0 25.333 4.33301 49.166 13 71.499s21.334 41.833 38.001 58.5s37 29.834 61 39.501s51.667 14.5 83 14.5c26 0 49.5 -4.5 70.5 -13.5
s39.5 -22.167 55.5 -39.5c8 15.333 20 27.333 36 36s37 13 63 13h93v-67h-86c-11.333 0 -20.166 -1.83301 -26.499 -5.5s-11 -8.5 -14 -14.5s-4.83301 -13 -5.5 -21s-1 -16 -1 -24l113 -203l-71 -30l-125 219c-30.667 52.667 -64.667 79 -102 79c-17.333 0 -33 -3 -47 -9
s-26 -14 -36 -24s-17.833 -21.833 -23.5 -35.5s-8.5 -28.5 -8.5 -44.5c0 -32 12.333 -59 37 -81s57 -33.333 97 -34v-70z" />
    <glyph glyph-name="angkhankhuthai" unicode="&#xe5a;" horiz-adv-x="579" 
d="M302 177c-12 -9.33301 -26.167 -16.167 -42.5 -20.5s-31.833 -6.5 -46.5 -6.5c-51.333 0 -92.333 11 -123 33s-46 56 -46 102c0 34 9.5 62.333 28.5 85s47.5 34 85.5 34h43v-72h-36c-16 0 -26.833 -4.16699 -32.5 -12.5s-8.5 -19.833 -8.5 -34.5
c0 -23.333 7.66699 -39.833 23 -49.5s37.333 -14.5 66 -14.5c59.333 0 89 29 89 87v96h82v-404h-82v177zM445 403.999h82v-404h-82v404z" />
    <glyph glyph-name="khomutthai" unicode="&#xe5b;" horiz-adv-x="908" 
d="M863 236l0.00195312 -67.999h-189l-19 25l-20.5 -37.5l-23.5 -41l-23.5 -39.5c-7.66699 -12.667 -14.5 -23.334 -20.5 -32.001l-18 34c-6.66699 12.667 -13.834 25.5 -21.501 38.5l-22.5 38c-7.33301 12.333 -14.333 23.5 -21 33.5
c-14.667 -55.333 -40.834 -98.833 -78.501 -130.5s-83.5 -47.5 -137.5 -47.5c-36.667 0 -68.667 5 -96 15s-50.166 23.833 -68.499 41.5s-32 38.5 -41 62.5s-13.5 50 -13.5 78c0 30.667 5 57.5 15 80.5s22.833 42 38.5 57s33.334 26.333 53.001 34s39.167 11.5 58.5 11.5
c26.667 0 48.667 -5.66699 66 -17s31.666 -22 42.999 -32l-51 -58c-24 21.333 -44 32 -60 32c-10.667 0 -21.167 -2.33301 -31.5 -7s-19.5 -11.5 -27.5 -20.5s-14.5 -20.167 -19.5 -33.5s-7.5 -29 -7.5 -47c0 -22 4 -40.833 12 -56.5s18.5 -28.5 31.5 -38.5
s28 -17.333 45 -22s34.5 -7 52.5 -7c20 0 39 4.66699 57 14s33.667 21.666 47 36.999s24 32.833 32 52.5s12 39.834 12 60.501c0 7.33301 -0.666992 15.666 -2 24.999s-4 20 -8 32l52 38c8.66699 -9.33301 18.167 -20.166 28.5 -32.499s20.666 -25.333 30.999 -39l30 -41
c9.66699 -13.667 18.167 -26.167 25.5 -37.5l14.5 27.5l14 28l11.5 24.5l8 18l39 13l49 -66h155z" />
    <glyph glyph-name="ZWSP" unicode="&#x200b;" 
 />
    <glyph glyph-name="endash" unicode="&#x2013;" horiz-adv-x="405" 
d="M35 173v71h335v-71h-335z" />
    <glyph glyph-name="emdash" unicode="&#x2014;" horiz-adv-x="686" 
d="M58 173v71h570v-71h-570z" />
    <glyph glyph-name="quoteleft" unicode="&#x2018;" horiz-adv-x="205" 
d="M59 442v83l85 65v-148h-85z" />
    <glyph glyph-name="quoteright" unicode="&#x2019;" horiz-adv-x="205" 
d="M144 548v-84l-85 -65v149h85z" />
    <glyph glyph-name="quotedblleft" unicode="&#x201c;" horiz-adv-x="347" 
d="M203 442v83l85 65v-148h-85zM59 442v83l85 65v-148h-85z" />
    <glyph glyph-name="quotedblright" unicode="&#x201d;" horiz-adv-x="347" 
d="M144 548v-84l-85 -65v149h85zM288 548v-84l-85 -65v149h85z" />
    <glyph glyph-name="bullet" unicode="&#x2022;" horiz-adv-x="449" 
d="M115 204c0 14.667 2.83301 28.667 8.5 42s13.5 25 23.5 35s21.667 18 35 24s27.666 9 42.999 9c14.667 0 28.667 -3 42 -9s25 -14 35 -24s18 -21.667 24 -35s9 -27.333 9 -42c0 -15.333 -3 -29.666 -9 -42.999s-14 -25 -24 -35s-21.667 -17.833 -35 -23.5
s-27.333 -8.5 -42 -8.5c-15.333 0 -29.666 2.83301 -42.999 8.5s-25 13.5 -35 23.5s-17.833 21.667 -23.5 35s-8.5 27.666 -8.5 42.999z" />
    <glyph glyph-name="Euro" unicode="&#x20ac;" horiz-adv-x="471" 
d="M429 155c-9.33301 -52 -30.499 -91.6689 -63.499 -119.002s-72.5 -41 -118.5 -41c-26 0 -50.167 4.83301 -72.5 14.5s-42.166 23.167 -59.499 40.5c-16 16 -27.5 32.833 -34.5 50.5s-11.167 38.167 -12.5 61.5h-49v62h47v27v31h-47v62h50c2 22 6.33301 41.833 13 59.5
s17.667 34.167 33 49.5c17.333 17.333 37.333 30.833 60 40.5s46.667 14.5 72 14.5c46 0 85.5 -13.667 118.5 -41s54.167 -66.666 63.5 -117.999h-84c-6 25.333 -17 45.666 -33 60.999s-37.667 23 -65 23c-14 0 -27.333 -2.33301 -40 -7s-22.667 -11.667 -30 -21
c-7.33301 -7.33301 -13 -15.5 -17 -24.5s-7.33301 -21.167 -10 -36.5h102v-62h-105v-31v-27h105v-62h-102c2 -16 5.16699 -28.667 9.5 -38s10.166 -17.666 17.499 -24.999c7.33301 -9.33301 17.333 -16.666 30 -21.999s26 -8 40 -8c27.333 0 49.166 8 65.499 24
s27.5 36.667 33.5 62h83v0z" />
    <glyph glyph-name="trademark" unicode="&#x2122;" horiz-adv-x="623" 
d="M524 192v173l-58 -100h-51l-57 102v-175h-62v311h56l89 -161l88 161h57v-311h-62zM179 448v-256h-63v256h-90v55h242v-55h-89z" />
    <glyph glyph-name="uni25CC" unicode="&#x25cc;" horiz-adv-x="561" 
d="M217 150l-40 -13l13 40c7.33301 -10.667 16.333 -19.667 27 -27zM261 346l20 38l18 -37c-6 0.666992 -11.667 1 -17 1c-7.33301 0 -14.333 -0.666992 -21 -2zM297 131l-16 -35l-18 35c6 -1.33301 12.333 -2 19 -2c5.33301 0 10.333 0.666992 15 2zM389 257l35 -19
l-35 -15c1.33301 4.66699 2 9.66699 2 15c0 6 -0.666992 12.333 -2 19zM174 221l-38 19l38 19c-1.33301 -7.33301 -2 -14.333 -2 -21c0 -6 0.666992 -11.667 2 -17zM193 304l-11 38l38 -13c-10.667 -6.66699 -19.667 -15 -27 -25zM368 172l10 -35l-34 11
c9.33301 6.66699 17.333 14.667 24 24zM343 329l42 13l-15 -39c-7.33301 10 -16.333 18.667 -27 26z" />
    <glyph glyph-name="thothannobasethai" unicode="&#xf700;" horiz-adv-x="380" 
d="M244 126c0 14 -2.66797 24.5 -8.00098 31.5s-15.666 10.5 -30.999 10.5h-66v69h67c13.333 0 26 -3 38 -9v23c-3.33301 57.333 -33.333 86 -90 86c-19.333 0 -37.333 -5.5 -54 -16.5s-29 -27.5 -37 -49.5l-75 34c15.333 34 37.333 59.667 66 77s62 26 100 26
c17.333 0 32.5 -1.33301 45.5 -4s26.167 -7 39.5 -13l82 77l57 -52l-80 -73c18 -24 27 -54 27 -90v-253h-81v126z" />
    <glyph glyph-name="saraileftthai" unicode="&#xf701;" 
d="M-443 542h276v-63h-276v63z" />
    <glyph glyph-name="saraiileftthai" unicode="&#xf702;" 
d="M-443 542h198v56h78v-119h-276v63z" />
    <glyph glyph-name="saraueleftthai" unicode="&#xf703;" 
d="M-443 479l0.000976562 62.999h127v9c0 22 7.66699 40.667 23 56s33.666 23 54.999 23c22 0 40.667 -7.16699 56 -21.5s23 -32.5 23 -54.5c0 -21.333 -7.66699 -39.166 -23 -53.499s-34 -21.5 -56 -21.5h-205zM-260.999 551.999c0 -6.66699 2.33301 -12.167 7 -16.5
s10 -6.5 16 -6.5c7.33301 0 13.333 2.16699 18 6.5s7 9.83301 7 16.5c0 7.33301 -2.33301 13.166 -7 17.499s-10.667 6.5 -18 6.5c-6 0 -11.333 -2.16699 -16 -6.5s-7 -10.166 -7 -17.499z" />
    <glyph glyph-name="saraueeleftthai" unicode="&#xf704;" 
d="M-443 542h101v56h69v-56h37v56h69v-119h-276v63z" />
    <glyph glyph-name="maieklowleftthai" unicode="&#xf705;" 
d="M-277 625h77v-148h-77v148z" />
    <glyph glyph-name="maitholowleftthai" unicode="&#xf706;" 
d="M-168 547l-0.000976562 -68.999h-216v57l33 7c10 2 15 9 15 21c0 11.333 -12.667 16 -38 14v68c34 0 61 -5.83301 81 -17.5s30 -30.834 30 -57.501c0 -4 -0.166992 -7.83301 -0.5 -11.5s-1.16602 -7.5 -2.49902 -11.5h98z" />
    <glyph glyph-name="maitrilowleftthai" unicode="&#xf707;" 
d="M-132 539l0.00390625 -61.002h-101v76c0 12.667 -2 21 -6 25l-24 -27c-4.66699 -6 -12 -9.16699 -22 -9.5s-18.667 3.16699 -26 10.5l-26 25c-4 -3.33301 -6.33301 -6.66602 -7 -9.99902s-1 -7.33301 -1 -12c0 -7.33301 3.66699 -13.333 11 -18s16.666 -7 27.999 -7v-56
h-19c-24.667 0 -44.834 7.66699 -60.501 23s-23.5 34 -23.5 56s5.33301 39.333 16 52s21 22 31 28c8 4 17 6.16699 27 6.5s19.333 -3.83398 28 -12.501l20 -18l19 18c9.33301 9.33301 18.666 13.5 27.999 12.5s16.666 -3.16699 21.999 -6.5
c11.333 -5.33301 22.5 -14.666 33.5 -27.999s16.5 -30.666 16.5 -51.999v-15h36z" />
    <glyph glyph-name="maichattawalowleftthai" unicode="&#xf708;" 
d="M-359 529v69h59v54h73v-54h59v-69h-59v-52h-73v52h-59z" />
    <glyph glyph-name="thanthakhatlowleftthai" unicode="&#xf709;" 
d="M-331 487c0 22 2.33203 39.667 6.99902 53s10.834 23.833 18.501 31.5s16 12.667 25 15s18.167 3.5 27.5 3.5h85v-67h-80c-8.66699 0 -13 -12 -13 -36h-70z" />
    <glyph glyph-name="maieklowrightthai" unicode="&#xf70a;" 
d="M-132 630h80v-148h-80v148z" />
    <glyph glyph-name="maitholowrightthai" unicode="&#xf70b;" 
d="M-14 551l-0.000976562 -68.999h-247v57l33 8c10 2 15 8.66699 15 20s-12.667 16 -38 14v68c34 0 61 -5.83301 81 -17.5s30 -30.834 30 -57.501c0 -4 -0.166992 -7.83301 -0.5 -11.5s-1.16602 -7.5 -2.49902 -11.5h129z" />
    <glyph glyph-name="maitrilowrightthai" unicode="&#xf70c;" 
d="M-20 545v-63h-147v78c0 6 -0.5 11.5 -1.5 16.5s-2.5 8.5 -4.5 10.5l-26 -29c-5.33301 -6 -12.833 -9.16699 -22.5 -9.5s-18.167 3.16699 -25.5 10.5l-28 27c-4 -3.33301 -6.5 -6.83301 -7.5 -10.5s-1.5 -8.16699 -1.5 -13.5c0 -7.33301 3.83301 -13.333 11.5 -18
s17.834 -7 30.501 -7v-58h-21c-24.667 0 -45.167 8 -61.5 24s-24.5 35 -24.5 57c0 23.333 5.33301 41.5 16 54.5s21.667 22.5 33 28.5c8 4.66699 17.167 7.16699 27.5 7.5s20.166 -4.16699 29.499 -13.5l20 -19l19 19c10 10 19.833 14.5 29.5 13.5
s17.167 -3.16699 22.5 -6.5c12 -6 23.667 -16 35 -30s17 -32 17 -54v-15h80z" />
    <glyph glyph-name="maichattawalowrightthai" unicode="&#xf70d;" 
d="M-188 534v69h59v54h73v-54h59v-69h-59v-52h-73v52h-59z" />
    <glyph glyph-name="thanthakhatlowrightthai" unicode="&#xf70e;" 
d="M-202 485c0 22 2.33203 39.667 6.99902 53s10.834 23.833 18.501 31.5s16 12.667 25 15s18.167 3.5 27.5 3.5h117v-67h-112c-9.33301 0 -14 -12 -14 -36h-69z" />
    <glyph glyph-name="yoyingnobasethai" unicode="&#xf70f;" horiz-adv-x="678" 
d="M61 238l-38.9971 53.999c23.333 38.667 51 67.667 83 87s69.333 29 112 29c61.333 0 106.833 -14 136.5 -42s44.5 -67.333 44.5 -118v-89c0 -30 6.16699 -53 18.5 -69s30.166 -24 53.499 -24c24 0 42.667 8 56 24s20 39 20 69v245h80v-253
c0 -21.333 -2.83301 -41.333 -8.5 -60s-14.834 -35 -27.501 -49s-28.667 -25.167 -48 -33.5s-42.666 -12.5 -69.999 -12.5c-51.333 0 -89.833 13.333 -115.5 40s-38.5 65 -38.5 115v91c0 34.667 -8.83301 59 -26.5 73s-42.834 21 -75.501 21
c-17.333 0 -34.833 -3.16699 -52.5 -9.5s-34.167 -17.166 -49.5 -32.499l27 -39v-152c0 -9.33301 1.5 -16.833 4.5 -22.5s9.5 -8.5 19.5 -8.5h40v-72h-48c-34.667 0 -59.334 9 -74.001 27s-22 43 -22 75v136z" />
    <glyph glyph-name="maihanakatleftthai" unicode="&#xf710;" 
d="M-233 579c0 -23.333 4.33105 -35 12.998 -35h248v-68h-257c-9.33301 0 -18.666 1.33301 -27.999 4s-17.666 7.83398 -24.999 15.501s-13.5 18.167 -18.5 31.5s-7.5 30.666 -7.5 51.999h75z" />
    <glyph glyph-name="nikhahitleftthai" unicode="&#xf711;" 
d="M-336 538c0 23.333 8.16699 43.166 24.5 59.499s36.166 24.5 59.499 24.5c22.667 0 42.167 -8.16699 58.5 -24.5s24.5 -36.166 24.5 -59.499c0 -22.667 -8.16699 -42.167 -24.5 -58.5s-35.833 -24.5 -58.5 -24.5c-23.333 0 -43.166 8.16699 -59.499 24.5
s-24.5 35.833 -24.5 58.5zM-279 538c0 -7.33301 2.5 -13.5 7.5 -18.5s11.5 -7.5 19.5 -7.5s14.5 2.5 19.5 7.5s7.5 11.167 7.5 18.5c0 8 -2.5 14.5 -7.5 19.5s-11.5 7.5 -19.5 7.5s-14.5 -2.5 -19.5 -7.5s-7.5 -11.5 -7.5 -19.5z" />
    <glyph glyph-name="maitaikhuleftthai" unicode="&#xf712;" 
d="M-349 598c-10 0 -17.498 -3.33496 -22.498 -10.002s-7.83301 -14.334 -8.5 -23.001c0 -5.33301 1 -11 3 -17s5 -11 9 -15l46 29c11.333 6.66699 23.333 6.66699 36 0l48 -29c3.33301 3.33301 5.66602 8.33301 6.99902 15s0.666016 13.667 -2.00098 21h62
c2.66699 -14 2.66699 -26.667 0 -38s-7.5 -21.333 -14.5 -30s-15.5 -16 -25.5 -22s-21 -10.667 -33 -14l-50 34c-6.66699 4.66699 -13 4.66699 -19 0l-49 -35c-22.667 7.33301 -42.167 19.166 -58.5 35.499s-24.5 37.833 -24.5 64.5c0 10.667 2.16699 21.334 6.5 32.001
s10.333 20.334 18 29.001s17.167 15.834 28.5 21.501s24 8.83398 38 9.50098h201v-58h-196z" />
    <glyph glyph-name="maiekupperleftthai" unicode="&#xf713;" 
d="M-244 802h77v-148h-77v148z" />
    <glyph glyph-name="maithoupperleftthai" unicode="&#xf714;" 
d="M-61 718l-0.000976562 -64h-230v53l31 8c9.33301 2 14 8 14 18s-12 14.667 -36 14v63c32 0 57.333 -5.33301 76 -16s28 -28.667 28 -54c0 -4 -0.166992 -7.66699 -0.5 -11s-1.16602 -7 -2.49902 -11h120z" />
    <glyph glyph-name="maitriupperleftthai" unicode="&#xf715;" 
d="M-61 713v-59.002h-144v74c0 12.667 -2 21 -6 25l-22 -27c-5.33301 -6 -12.833 -9.16699 -22.5 -9.5s-18.167 3.16699 -25.5 10.5l-26 25c-4 -3.33301 -6.33301 -6.66602 -7 -9.99902s-1 -7.66602 -1 -12.999c0 -6.66699 3.66699 -12.167 11 -16.5
s16.666 -6.5 27.999 -6.5v-55h-20c-23.333 0 -42.666 7.5 -57.999 22.5s-23 33.167 -23 54.5c0 22.667 5.16699 40 15.5 52s20.5 20.667 30.5 26c7.33301 4.66699 15.833 7 25.5 7s19.167 -4.33301 28.5 -13l19 -18l18 18c9.33301 9.33301 18.5 13.666 27.5 12.999
s16.167 -2.66699 21.5 -6c11.333 -5.33301 22.333 -14.666 33 -27.999s16 -30.333 16 -51v-15h81z" />
    <glyph glyph-name="maichattawaupperleftthai" unicode="&#xf716;" 
d="M-294 704v67h57v52h70v-52h57v-67h-57v-50h-70v50h-57z" />
    <glyph glyph-name="thanthakhatupperleftthai" unicode="&#xf717;" 
d="M-233 600c0 22 2.33105 39.667 6.99805 53s10.834 23.833 18.501 31.5s16 12.667 25 15s18.167 3.5 27.5 3.5h95v-68h-90c-5.33301 0 -8.66602 -3 -9.99902 -9s-2 -14.667 -2 -26h-71z" />
    <glyph glyph-name="saraulowthai" unicode="&#xf718;" 
d="M-129 -264c0 8 -0.833008 12.998 -2.5 14.998s-4.83398 3 -9.50098 3h-30v71h35c15.333 0 28.333 -1.16699 39 -3.5s19.334 -6.66602 26.001 -12.999s11.5 -15.166 14.5 -26.499s4.5 -26.333 4.5 -45v-72h-77v71z" />
    <glyph glyph-name="sarauulowthai" unicode="&#xf719;" 
d="M-232 -246c0 4 -1.66797 6 -5.00098 6h-27v64h38c24.667 0 41.334 -5 50.001 -15s13 -26.667 13 -50v-5c0 -4.66699 1.5 -9.33398 4.5 -14.001s8.5 -7 16.5 -7s13.333 2.33301 16 7s4 9.33398 4 14.001v70h70v-70c0 -25.333 -8.5 -45.666 -25.5 -60.999
s-38.5 -23 -64.5 -23c-28 0 -50 7.66699 -66 23s-24 35.666 -24 60.999z" />
    <glyph glyph-name="phinthulowthai" unicode="&#xf71a;" 
d="M-144 -223c0 14 4.83301 25.833 14.5 35.5s21.5 14.5 35.5 14.5s25.833 -4.83301 35.5 -14.5s14.5 -21.5 14.5 -35.5s-4.83301 -25.833 -14.5 -35.5s-21.5 -14.5 -35.5 -14.5s-25.833 4.83301 -35.5 14.5s-14.5 21.5 -14.5 35.5z" />
    <glyph glyph-name="lochula.short" unicode="&#xf71d;" horiz-adv-x="549" 
d="M421 309c-0.666992 8.66699 -5.16602 15.167 -13.499 19.5s-21.833 6.83301 -40.5 7.5v68h52c11.333 0 20.166 2.83301 26.499 8.5s10.833 12.5 13.5 20.5l14 43h82l-20 -64c-4.66699 -14 -11 -26 -19 -36s-16.667 -18.333 -26 -25c10 -16 13 -33.333 9 -52l-51 -299h-70
l-106 277l-106 -277h-71l-68 404h81l40 -272l96 272h56l96 -272z" />
    <glyph glyph-name="rulakkhangyao" unicode="&#xf881;" horiz-adv-x="769" 
d="M443 333c15.333 24 34.5 42.5 57.5 55.5s49.167 19.5 78.5 19.5c46 0 80.5 -11.667 103.5 -35s34.5 -57 34.5 -101v-423h-80v421c0 20.667 -4.33301 37 -13 49s-23.667 18 -45 18c-29.333 0 -53.333 -13.333 -72 -40zM58 238l-38.999 54
c23.333 38.667 50.833 67.667 82.5 87s69.167 29 112.5 29c60.667 0 105.834 -13.833 135.501 -41.5s44.5 -67.167 44.5 -118.5v-399h-79v393c0 34.667 -8.83301 59.167 -26.5 73.5s-42.834 21.5 -75.501 21.5c-17.333 0 -34.833 -3.16699 -52.5 -9.5
s-34.167 -17.5 -49.5 -33.5l13.5 -19.5l12.5 -18.5v-153c0 -9.33301 1.66699 -16.833 5 -22.5s10 -8.5 20 -8.5h40v-72h-48c-34.667 0 -59.334 9 -74.001 27s-22 43 -22 75v136z" />
    <glyph glyph-name="lulakkhangyao" unicode="&#xf882;" horiz-adv-x="787" 
d="M412 -150l-81.0039 -0.000976562v392c0 34.667 -8.66699 59.167 -26 73.5s-42.333 21.5 -75 21.5c-17.333 0 -34.666 -2.83301 -51.999 -8.5s-33.666 -16.167 -48.999 -31.5l26 -38v-157c0 -23.333 -4.33301 -41.666 -13 -54.999s-19.167 -23.5 -31.5 -30.5
s-25.333 -11.5 -39 -13.5s-25.5 -3 -35.5 -3l-14 71c14 -0.666992 24.5 0.333008 31.5 3s12 6 15 10s4.66699 8.5 5 13.5s0.5 9.5 0.5 13.5v127l-38 54c23.333 38.667 50.833 67.667 82.5 87s69.167 29 112.5 29c60.667 0 105.834 -13.833 135.501 -41.5
s44.834 -67.167 45.501 -118.5v-398zM460.996 332.999c15.333 24 34.5 42.5 57.5 55.5s49.167 19.5 78.5 19.5c46 0 80.5 -11.667 103.5 -35s34.5 -57 34.5 -101v-423h-80v421c0 20.667 -4.33301 37 -13 49s-23.667 18 -45 18c-29.333 0 -53.333 -13.333 -72 -40z" />
    <glyph glyph-name=".null" 
 />
    <glyph glyph-name="nonmarkingreturn" horiz-adv-x="237" 
 />
    <glyph glyph-name="yamakkanleftthai" 
d="M-251 519c-4 0 -6.33301 -3 -7 -9s-1 -15 -1 -27h-70c0 34 4 57.667 12 71s18.667 21.333 32 24c2.66699 9.33301 6.66699 16.5 12 21.5s11.333 8.83301 18 11.5s13.667 4.16699 21 4.5s14 0.5 20 0.5h42v-61h-40c-4 0 -6.33301 -2.5 -7 -7.5s-1 -14.5 -1 -28.5h-31z" />
    <glyph glyph-name="saraamleft" horiz-adv-x="330" 
d="M-346 538c0 23.333 8.16699 43.166 24.5 59.499s36.166 24.5 59.499 24.5c22.667 0 42.167 -8.16699 58.5 -24.5s24.5 -36.166 24.5 -59.499c0 -22.667 -8.16699 -42.167 -24.5 -58.5s-35.833 -24.5 -58.5 -24.5c-23.333 0 -43.166 8.16699 -59.499 24.5
s-24.5 35.833 -24.5 58.5zM4 333c15.333 24 34.5 42.5 57.5 55.5s49.167 19.5 78.5 19.5c46 0 80.5 -11.667 103.5 -35s34.5 -57 34.5 -101v-272h-80v270c0 20.667 -4.33301 37 -13 49s-23.667 18 -45 18c-29.333 0 -53.333 -13.333 -72 -40zM-289 538
c0 -7.33301 2.5 -13.5 7.5 -18.5s11.5 -7.5 19.5 -7.5s14.5 2.5 19.5 7.5s7.5 11.167 7.5 18.5c0 8 -2.5 14.5 -7.5 19.5s-11.5 7.5 -19.5 7.5s-14.5 -2.5 -19.5 -7.5s-7.5 -11.5 -7.5 -19.5z" />
    <glyph glyph-name="uni0E33.alt1" horiz-adv-x="330" 
d="M-346 538c0 23.333 8.16699 43.166 24.5 59.499s36.166 24.5 59.499 24.5c22.667 0 42.167 -8.16699 58.5 -24.5s24.5 -36.166 24.5 -59.499c0 -22.667 -8.16699 -42.167 -24.5 -58.5s-35.833 -24.5 -58.5 -24.5c-23.333 0 -43.166 8.16699 -59.499 24.5
s-24.5 35.833 -24.5 58.5zM4 333c15.333 24 34.5 42.5 57.5 55.5s49.167 19.5 78.5 19.5c46 0 80.5 -11.667 103.5 -35s34.5 -57 34.5 -101v-272h-80v270c0 20.667 -4.33301 37 -13 49s-23.667 18 -45 18c-29.333 0 -53.333 -13.333 -72 -40zM-289 538
c0 -7.33301 2.5 -13.5 7.5 -18.5s11.5 -7.5 19.5 -7.5s14.5 2.5 19.5 7.5s7.5 11.167 7.5 18.5c0 8 -2.5 14.5 -7.5 19.5s-11.5 7.5 -19.5 7.5s-14.5 -2.5 -19.5 -7.5s-7.5 -11.5 -7.5 -19.5z" />
    <glyph glyph-name="saraithai.alt1" 
d="M-351 542h299v-63h-299v63z" />
    <glyph glyph-name="saraiithai.alt1" 
d="M-350 542h220v61h78v-124h-298v63z" />
    <glyph glyph-name="sarauethai.alt1" 
d="M-351 479l0.000976562 62.999h150v9c0 22 7.66699 40.667 23 56s33.666 23 54.999 23c22 0 40.667 -7.16699 56 -21.5s23 -32.5 23 -54.5c0 -21.333 -7.66699 -39.166 -23 -53.499s-34 -21.5 -56 -21.5h-228zM-145.999 552.999c0 -6.66699 2.33301 -12.167 7 -16.5
s10 -6.5 16 -6.5c7.33301 0 13.333 2.16699 18 6.5s7 9.83301 7 16.5c0 7.33301 -2.33301 13.166 -7 17.499s-10.667 6.5 -18 6.5c-6 0 -11.333 -2.16699 -16 -6.5s-7 -10.166 -7 -17.499z" />
    <glyph glyph-name="saraueethai.alt1" 
d="M-351 542h124v61h69v-61h37v61h69v-124h-299v63z" />
    <glyph glyph-name="saraithai.alt2" 
d="M-505 542h360v-63h-360v63z" />
    <glyph glyph-name="saraiithai.alt2" 
d="M-505 542h282v56h78v-119h-360v63z" />
    <glyph glyph-name="sarauethai.alt2" 
d="M-505 479l0.000976562 62.999h214v9c0 22 7.66699 40.667 23 56s33.666 23 54.999 23c22 0 40.667 -7.16699 56 -21.5s23 -32.5 23 -54.5c0 -21.333 -7.66699 -39.166 -23 -53.499s-34 -21.5 -56 -21.5h-292zM-235.999 551.999c0 -6.66699 2.33301 -12.167 7 -16.5
s10 -6.5 16 -6.5c7.33301 0 13.333 2.16699 18 6.5s7 9.83301 7 16.5c0 7.33301 -2.33301 13.166 -7 17.499s-10.667 6.5 -18 6.5c-6 0 -11.333 -2.16699 -16 -6.5s-7 -10.166 -7 -17.499z" />
    <glyph glyph-name="saraueethai.alt2" 
d="M-505 542h185v56h69v-56h37v56h69v-119h-360v63z" />
    <glyph glyph-name="maiekthai.alt2" 
d="M-222 802h77v-148h-77v148z" />
    <glyph glyph-name="maithothai.alt2" 
d="M-89 718l-0.000976562 -64h-230v53l31 8c9.33301 2 14 8 14 18s-12 14.667 -36 14v63c32 0 57.333 -5.33301 76 -16s28 -28.667 28 -54c0 -4 -0.166992 -7.66699 -0.5 -11s-1.16602 -7 -2.49902 -11h120z" />
    <glyph glyph-name="maitrithai.alt2" 
d="M-66 713v-59.002h-144v74c0 12.667 -2 21 -6 25l-22 -27c-5.33301 -6 -12.833 -9.16699 -22.5 -9.5s-18.167 3.16699 -25.5 10.5l-26 25c-4 -3.33301 -6.33301 -6.66602 -7 -9.99902s-1 -7.66602 -1 -12.999c0 -6.66699 3.66699 -12.167 11 -16.5
s16.666 -6.5 27.999 -6.5v-55h-20c-23.333 0 -42.666 7.5 -57.999 22.5s-23 33.167 -23 54.5c0 22.667 5.16699 40 15.5 52s20.5 20.667 30.5 26c7.33301 4.66699 15.833 7 25.5 7s19.167 -4.33301 28.5 -13l19 -18l18 18c9.33301 9.33301 18.5 13.666 27.5 12.999
s16.167 -2.66699 21.5 -6c11.333 -5.33301 22.333 -14.666 33 -27.999s16 -30.333 16 -51v-15h81z" />
    <glyph glyph-name="maichattawathai.alt2" 
d="M-275 704v67h57v52h70v-52h57v-67h-57v-50h-70v50h-57z" />
    <glyph glyph-name="saraithai.alt3" 
d="M-503 542h451v-63h-451v63z" />
    <glyph glyph-name="saraiithai.alt3" 
d="M-503 542h373v61h78v-124h-451v63z" />
    <glyph glyph-name="sarauethai.alt3" 
d="M-503 479l0.000976562 67h302v9c0 22 7.66699 40.667 23 56s33.666 23 54.999 23c22 0 40.667 -7.5 56 -22.5s23 -33.5 23 -55.5c0 -21.333 -7.66699 -39.5 -23 -54.5s-34 -22.5 -56 -22.5h-380zM-145.999 555c0 -6.66699 2.33301 -12.167 7 -16.5s10 -6.5 16 -6.5
c7.33301 0 13.333 2.16699 18 6.5s7 9.83301 7 16.5c0 7.33301 -2.33301 13.166 -7 17.499s-10.667 6.5 -18 6.5c-6 0 -11.333 -2.16699 -16 -6.5s-7 -10.166 -7 -17.499z" />
    <glyph glyph-name="saraueethai.alt3" 
d="M-503 546h276v61h69v-61h37v61h69v-128h-451v67z" />
    <glyph glyph-name="maiekthai.alt3" 
d="M-129 802h77v-148h-77v148z" />
    <glyph glyph-name="maithothai.alt3" 
d="M34 719l-0.000976562 -64h-230v53l31 8c9.33301 2 14 8 14 18s-12 14.667 -36 14v63c32 0 57.333 -5.33301 76 -16s28 -28.667 28 -54c0 -4 -0.166992 -7.66699 -0.5 -11s-1.16602 -7 -2.49902 -11h120z" />
    <glyph glyph-name="maitrithai.alt3" 
d="M27 713v-59.002h-144v74c0 12.667 -2 21 -6 25l-22 -27c-5.33301 -6 -12.833 -9.16699 -22.5 -9.5s-18.167 3.16699 -25.5 10.5l-26 25c-4 -3.33301 -6.33301 -6.66602 -7 -9.99902s-1 -7.66602 -1 -12.999c0 -6.66699 3.66699 -12.167 11 -16.5s16.666 -6.5 27.999 -6.5
v-55h-20c-23.333 0 -42.666 7.5 -57.999 22.5s-23 33.167 -23 54.5c0 22.667 5.16699 40 15.5 52s20.5 20.667 30.5 26c7.33301 4.66699 15.833 7 25.5 7s19.167 -4.33301 28.5 -13l19 -18l18 18c9.33301 9.33301 18.5 13.666 27.5 12.999s16.167 -2.66699 21.5 -6
c11.333 -5.33301 22.333 -14.666 33 -27.999s16 -30.333 16 -51v-15h81z" />
    <glyph glyph-name="maichattawathai.alt3" 
d="M-182 704v67h57v52h70v-52h57v-67h-57v-50h-70v50h-57z" />
    <glyph glyph-name="saraithai.alt4" 
d="M-404 542h340v-63h-340v63z" />
    <glyph glyph-name="saraiithai.alt4" 
d="M-404 542h262v61h78v-124h-340v63z" />
    <glyph glyph-name="thanthakhatthai.alt4" 
d="M-228 458c0 22 2.33105 39.667 6.99805 53s10.834 23.833 18.501 31.5s16 12.667 25 15s18.167 3.5 27.5 3.5h117v-68h-112c-5.33301 0 -8.66602 -3 -9.99902 -9s-2 -14.667 -2 -26h-71z" />
    <glyph glyph-name="zero.alt1" horiz-adv-x="375" 
d="M326 133c0 -21.333 -3.66699 -40.5 -11 -57.5s-17.166 -31.5 -29.499 -43.5s-27 -21.167 -44 -27.5s-34.833 -9.5 -53.5 -9.5c-19.333 0 -37.5 3.16699 -54.5 9.5s-31.667 15.5 -44 27.5s-22.166 26.5 -29.499 43.5s-11 36.167 -11 57.5v138
c0 21.333 3.66699 40.5 11 57.5s17.166 31.5 29.499 43.5s27 21.167 44 27.5s35.167 9.5 54.5 9.5c18.667 0 36.5 -3.16699 53.5 -9.5s31.667 -15.5 44 -27.5s22.166 -26.5 29.499 -43.5s11 -36.167 11 -57.5v-138zM250 269c0 21.333 -5.5 38.5 -16.5 51.5
s-26.167 19.5 -45.5 19.5c-20 0 -35.5 -6.5 -46.5 -19.5s-16.5 -30.167 -16.5 -51.5v-134c0 -21.333 5.5 -38.5 16.5 -51.5s26.5 -19.5 46.5 -19.5c19.333 0 34.5 6.5 45.5 19.5s16.5 30.167 16.5 51.5v134z" />
    <glyph glyph-name="one.alt1" horiz-adv-x="343" 
d="M161 0v317l-99 -84v85l101 86h76v-404h-78z" />
    <glyph glyph-name="two.alt1" horiz-adv-x="375" 
d="M44 0l0.000976562 67.002l161 144c14 12.667 24.833 25.167 32.5 37.5s11.5 25.166 11.5 38.499c0 17.333 -5.83301 31.5 -17.5 42.5s-26.834 16.5 -45.501 16.5c-16.667 0 -31.5 -5.83301 -44.5 -17.5s-19.5 -28.834 -19.5 -51.501h-78c0 20.667 3.66699 39.5 11 56.5
s17.333 31.667 30 44s27.667 21.833 45 28.5s36 10 56 10c20.667 0 39.5 -3.16699 56.5 -9.5s31.667 -15 44 -26s22 -24.5 29 -40.5s10.5 -33.333 10.5 -52c0 -25.333 -7 -47.833 -21 -67.5s-31.667 -39.5 -53 -59.5l-99 -91h184v-70h-293z" />
    <glyph glyph-name="three.alt1" horiz-adv-x="375" 
d="M339 44c0 -24.667 -4.16211 -46.333 -12.4951 -65s-19.833 -34.167 -34.5 -46.5s-31.5 -21.666 -50.5 -27.999s-39.5 -9.5 -61.5 -9.5c-20.667 0 -40.334 2.83301 -59.001 8.5s-35.334 14.5 -50.001 26.5s-26.334 27.167 -35.001 45.5s-13.334 40.166 -14.001 65.499h78
c1.33301 -26.667 10 -45.834 26 -57.501s34 -17.5 54 -17.5c22.667 0 41.667 7 57 21s23 33.667 23 59c0 24.667 -6.66699 43.834 -20 57.501s-34 20.5 -62 20.5h-15v69h15c25.333 0 44 6.66699 56 20s18 31.333 18 54c0 23.333 -7.16699 41.333 -21.5 54
s-31.166 19 -50.499 19c-20.667 0 -37.667 -6.33301 -51 -19s-20.666 -29.667 -21.999 -51h-79c0.666992 22 5.16699 41.667 13.5 59s19.166 32 32.499 44s29 21.167 47 27.5s37.667 9.5 59 9.5c22 0 42.167 -3.33301 60.5 -10s34.166 -16.334 47.499 -29.001
s23.666 -27.667 30.999 -45s11 -36.333 11 -57c0 -25.333 -5.5 -47 -16.5 -65s-25.167 -32 -42.5 -42c21.333 -9.33301 38 -23.666 50 -42.999s18 -44.333 18 -75z" />
    <glyph glyph-name="four.alt1" horiz-adv-x="375" 
d="M299 0v-74h-76v74h-206v72l181 357h84l-178 -355h119v116h76v-116h55v-74h-55z" />
    <glyph glyph-name="five.alt1" horiz-adv-x="375" 
d="M342 70c0 -24 -2.83105 -46.666 -8.49805 -67.999s-14.5 -39.833 -26.5 -55.5s-27.833 -28.167 -47.5 -37.5s-43.5 -14 -71.5 -14c-46 0 -81.833 12.833 -107.5 38.5s-39.167 59.5 -40.5 101.5h77c3.33301 -22 10.666 -39 21.999 -51s27.666 -18 48.999 -18
c10 0 19.5 1.5 28.5 4.5s16.833 7.83301 23.5 14.5c10 10 16.333 22.5 19 37.5s4 30.833 4 47.5c0 14.667 -1 28.167 -3 40.5s-5.83301 23.166 -11.5 32.499s-13.167 16.666 -22.5 21.999s-21 8 -35 8c-19.333 0 -35 -4.5 -47 -13.5s-19.667 -19.833 -23 -32.5h-70v277h278
v-68h-208v-123c9.33301 7.33301 20.833 13.333 34.5 18s29.167 7 46.5 7c26 0 48 -4.66699 66 -14s32.5 -21.833 43.5 -37.5s18.833 -33.667 23.5 -54s7 -41.166 7 -62.499z" />
    <glyph glyph-name="six.alt1" horiz-adv-x="375" 
d="M349 159c0 -25.333 -4 -48 -12 -68s-19.167 -37.167 -33.5 -51.5s-31.5 -25.333 -51.5 -33s-41.667 -11.5 -65 -11.5c-47.333 0 -86 14.167 -116 42.5s-45 67.5 -45 117.5c0 21.333 3.83301 42.5 11.5 63.5s17.167 43.167 28.5 66.5l110 218h89l-100 -196
c6 2 12.333 3.33301 19 4s13.334 1 20.001 1c20 0 38.667 -3.5 56 -10.5s32.666 -17.167 45.999 -30.5s23.833 -29.5 31.5 -48.5s11.5 -40.167 11.5 -63.5zM269 157c0 24 -7.5 44.333 -22.5 61s-34.833 25 -59.5 25c-23.333 0 -42.833 -7.5 -58.5 -22.5
s-23.5 -36.167 -23.5 -63.5c0 -28 7.83301 -50 23.5 -66s35.167 -24 58.5 -24s42.833 8 58.5 24s23.5 38 23.5 66z" />
    <glyph glyph-name="seven.alt1" horiz-adv-x="375" 
d="M173 -99h-84l171 435h-149v-79h-75v147h308v-66z" />
    <glyph glyph-name="eight.alt1" horiz-adv-x="375" 
d="M347 145c0 -23.333 -4.16895 -44.166 -12.502 -62.499s-19.666 -34 -33.999 -47s-31.333 -23 -51 -30s-40.5 -10.5 -62.5 -10.5s-42.667 3.5 -62 10.5s-36.166 17 -50.499 30s-25.666 28.667 -33.999 47s-12.5 39.166 -12.5 62.499c0 28 6.83301 51.667 20.5 71
s28.834 34.333 45.501 45c-15.333 9.33301 -28.833 23 -40.5 41s-17.5 40 -17.5 66c0 21.333 4 40.666 12 57.999s18.667 32 32 44s29.166 21.333 47.499 28s38.166 10 59.499 10s41.166 -3.33301 59.499 -10s34.333 -16 48 -28s24.5 -26.667 32.5 -44
s12 -36.666 12 -57.999c0 -26 -5.83301 -48 -17.5 -66s-25.167 -31.667 -40.5 -41c16.667 -10.667 31.834 -25.667 45.501 -45s20.5 -43 20.5 -71zM259.998 366c0 20 -6.66699 37.167 -20 51.5s-31 21.5 -53 21.5c-21.333 0 -38.833 -7.16699 -52.5 -21.5
s-20.5 -31.5 -20.5 -51.5c0 -22 6.83301 -39.667 20.5 -53s31.167 -20 52.5 -20c22 0 39.667 6.66699 53 20s20 31 20 53zM267.998 145c0 22 -7.66699 40.833 -23 56.5s-34.666 23.5 -57.999 23.5c-22.667 0 -41.667 -7.83301 -57 -23.5s-23 -34.5 -23 -56.5
s7.66699 -40.833 23 -56.5s34.333 -23.5 57 -23.5c23.333 0 42.666 7.83301 57.999 23.5s23 34.5 23 56.5z" />
    <glyph glyph-name="nine.alt1" horiz-adv-x="375" 
d="M26 245c0 24.667 4 47.1689 12 67.502s19.167 37.666 33.5 51.999s31.333 25.333 51 33s41.167 11.5 64.5 11.5s45 -3.66699 65 -11s37.167 -18 51.5 -32s25.5 -30.833 33.5 -50.5s12 -41.834 12 -66.501c0 -21.333 -3.83301 -42.5 -11.5 -63.5
s-17.167 -43.167 -28.5 -66.5l-110 -218h-90l101 196c-6 -2 -12.333 -3.33301 -19 -4s-13.334 -1 -20.001 -1c-20 0 -38.667 3.5 -56 10.5s-32.666 17.167 -45.999 30.5s-23.833 29.5 -31.5 48.5s-11.5 40.167 -11.5 63.5zM106 247.002c0 -24 7.5 -44.5 22.5 -61.5
s34.833 -25.5 59.5 -25.5c23.333 0 42.833 7.5 58.5 22.5s23.5 36.5 23.5 64.5c0 27.333 -7.83301 49.166 -23.5 65.499s-35.167 24.5 -58.5 24.5s-42.833 -8.16699 -58.5 -24.5s-23.5 -38.166 -23.5 -65.499z" />
    <glyph glyph-name="maitaikhuthai.alt1" 
d="M-241 610c-10 0 -17.498 -3.33496 -22.498 -10.002s-7.83301 -14.334 -8.5 -23.001c0 -5.33301 1 -11 3 -17s5 -11 9 -15l46 29c11.333 6.66699 23.333 6.66699 36 0l48 -29c3.33301 3.33301 5.66602 8.33301 6.99902 15s0.666016 13.667 -2.00098 21h62
c2.66699 -14 2.66699 -26.667 0 -38s-7.5 -21.333 -14.5 -30s-15.5 -16 -25.5 -22s-21 -10.667 -33 -14l-50 34c-6.66699 4.66699 -13 4.66699 -19 0l-49 -35c-22.667 7.33301 -42.167 19.166 -58.5 35.499s-24.5 37.833 -24.5 64.5c0 10.667 2.16699 21.334 6.5 32.001
s10.333 20.334 18 29.001s17.167 15.834 28.5 21.501s24 8.83398 38 9.50098h201v-58h-196z" />
    <glyph glyph-name="maihanakatthai.alt2" 
d="M-233 579c0 -24.667 4.33105 -36.999 12.998 -36.999h269v-63h-278c-9.33301 0 -18.666 1.16699 -27.999 3.5s-17.666 7.16602 -24.999 14.499s-13.5 17.5 -18.5 30.5s-7.5 30.167 -7.5 51.5h75z" />
    <glyph glyph-name="maiekthai.alt7" 
d="M-244 762h77v-148h-77v148z" />
    <glyph glyph-name="maithothai.alt7" 
d="M-166 678l-0.000976562 -64h-220v53l31 8c9.33301 2 14 8 14 18s-12 14.667 -36 14v63c32 0 57.333 -5.33301 76 -16s28 -28.667 28 -54c0 -4 -0.166992 -7.66699 -0.5 -11s-1.16602 -7 -2.49902 -11h110z" />
    <glyph glyph-name="maitrithai.alt7" 
d="M-163 673v-59.002h-105v74c0 12.667 -2 21 -6 25l-22 -27c-5.33301 -6 -12.833 -9.16699 -22.5 -9.5s-18.167 3.16699 -25.5 10.5l-26 25c-4 -3.33301 -6.33301 -6.66602 -7 -9.99902s-1 -7.66602 -1 -12.999c0 -6.66699 3.66699 -12.167 11 -16.5
s16.666 -6.5 27.999 -6.5v-55h-20c-23.333 0 -42.666 7.5 -57.999 22.5s-23 33.167 -23 54.5c0 22.667 5.16699 40 15.5 52s20.5 20.667 30.5 26c7.33301 4.66699 15.833 7 25.5 7s19.167 -4.33301 28.5 -13l19 -18l18 18c9.33301 9.33301 18.5 13.666 27.5 12.999
s16.167 -2.66699 21.5 -6c11.333 -5.33301 22.333 -14.666 33 -27.999s16 -30.333 16 -51v-15h42z" />
    <glyph glyph-name="maichattawathai.alt7" 
d="M-294 664v67h57v52h70v-52h57v-67h-57v-50h-70v50h-57z" />
    <glyph glyph-name="maiekthai.alt5" 
d="M-129 762h77v-148h-77v148z" />
    <glyph glyph-name="maithothai.alt5" 
d="M34 678l-0.000976562 -64h-230v53l31 8c9.33301 2 14 8 14 18s-12 14.667 -36 14v63c32 0 57.333 -5.33301 76 -16s28 -28.667 28 -54c0 -4 -0.166992 -7.66699 -0.5 -11s-1.16602 -7 -2.49902 -11h120z" />
    <glyph glyph-name="maitrithai.alt5" 
d="M27 673v-59.002h-144v74c0 12.667 -2 21 -6 25l-22 -27c-5.33301 -6 -12.833 -9.16699 -22.5 -9.5s-18.167 3.16699 -25.5 10.5l-26 25c-4 -3.33301 -6.33301 -6.66602 -7 -9.99902s-1 -7.66602 -1 -12.999c0 -6.66699 3.66699 -12.167 11 -16.5s16.666 -6.5 27.999 -6.5
v-55h-20c-23.333 0 -42.666 7.5 -57.999 22.5s-23 33.167 -23 54.5c0 22.667 5.16699 40 15.5 52s20.5 20.667 30.5 26c7.33301 4.66699 15.833 7 25.5 7s19.167 -4.33301 28.5 -13l19 -18l18 18c9.33301 9.33301 18.5 13.666 27.5 12.999s16.167 -2.66699 21.5 -6
c11.333 -5.33301 22.333 -14.666 33 -27.999s16 -30.333 16 -51v-15h81z" />
    <glyph glyph-name="maichattawathai.alt5" 
d="M-179 664v67h57v52h70v-52h57v-67h-57v-50h-70v50h-57z" />
    </font>
</defs>
</svg>
